<?xml version="1.0" standalone="no"?>
<!DOCTYPE svg PUBLIC "-//W3C//DTD SVG 1.1//EN" "http://www.w3.org/Graphics/SVG/1.1/DTD/svg11.dtd" >
<svg xmlns="http://www.w3.org/2000/svg" xmlns:xlink="http://www.w3.org/1999/xlink" version="1.1">
<metadata>
Created by FontForge 20190801 at Thu Nov  2 11:09:34 2017
 By Unknown
Copyright (c) 2017 by Joelmaker Studio. All rights reserved.
</metadata>
<defs>
<font id="ZenithScript" horiz-adv-x="500" >
  <font-face 
    font-family="Zenith Script"
    font-weight="400"
    font-stretch="normal"
    units-per-em="1000"
    panose-1="2 0 5 9 0 0 0 2 0 4"
    ascent="800"
    descent="-200"
    x-height="473"
    cap-height="720"
    bbox="-426.711 -462 1353 874"
    underline-thickness="50"
    underline-position="-150"
    unicode-range="U+000D-2212"
  />
<missing-glyph horiz-adv-x="200" 
 />
    <glyph glyph-name="b_r" unicode="br" horiz-adv-x="764" 
d="M584 45q8 0 24 21.5t37.5 59t47 87t52.5 105.5q11 23 22.5 36t22.5 11q10 -2 11 -14.5t-7 -31.5q-25 -54 -53 -110.5t-54.5 -103t-49.5 -77t-38 -30.5q-80 3 -114.5 44t-25.5 114q8 54 29.5 104t42.5 100q18 43 25 78.5t-9 52.5q-44 -96 -84 -182.5t-88 -167.5
q-23 -38 -44 -66t-45 -46t-55 -26.5t-73 -8.5q-39 0 -68 7.5t-55 37.5q-4 -10 -9.5 -21t-14.5 -11h-3q-49 11 -66.5 39t-17.5 63q0 19 4 37.5t9 35.5l160 499q3 11 5.5 19.5t1.5 15.5v6q2 2 12 2q11 0 28.5 -3t34 -9.5t28 -17.5t11.5 -26q0 1 -12 -31.5t-30.5 -85.5
t-40.5 -120t-43 -135q15 37 30 70t33 57.5t39 38.5t47 14q21 0 40 -11t33 -31.5t22.5 -50t8.5 -66.5q0 -33 -6.5 -70t-18.5 -72.5t-30 -67.5t-41 -56q10 5 23 18.5t25.5 30.5t24.5 35t20 32q49 87 89 172t82 170q3 6 7.5 17.5t8.5 24.5t6 24.5t0 16.5q-2 4 5.5 5t16.5 -1
t17.5 -7.5t8.5 -15.5q1 -9 -1.5 -18t-4.5 -19q-2 -14 5 -25t18 -21.5t22.5 -21t19.5 -23.5q17 -30 14.5 -61t-19.5 -71q-3 -6 -9 -22t-14.5 -37.5t-17.5 -46.5t-16 -50q-11 -35 -14.5 -57t-2 -34t7 -16.5t13.5 -4.5zM49 75q10 -16 20 -22.5t20 -6.5q22 0 47 32t47 79
t36.5 100.5t14.5 97.5q0 22 -6 37t-20 15q-10 0 -23 -18.5t-28.5 -48t-31 -66.5t-30 -73.5t-27 -69.5t-19.5 -54v-2z" />
    <glyph glyph-name="b_s" unicode="bs" horiz-adv-x="757" 
d="M258 68q28 15 53 44t47.5 64t42.5 73t37 72q12 24 25 49t29 47t37 39t50 24h5q8 0 19.5 -3t22 -8.5t18 -14.5t7.5 -21q0 -10 -7 -23q-26 -29 -40 -49.5t-14 -47.5q0 -14 6.5 -34t15 -44t15 -50t6.5 -51l-1 -15q9 12 18 27q27 49 49 93.5t39 78.5q13 26 24 37.5t23 9.5
q7 -1 10 -12t-8 -34q-8 -16 -18 -37t-21 -45t-23.5 -48.5t-24.5 -48.5q-47 -94 -124 -129q-22 -11 -45.5 -15.5t-46.5 -4.5q-24 0 -46 6.5t-38.5 20t-26.5 33.5t-10 46q-21 -30 -44 -50t-49 -32t-56 -16.5t-67 -4.5q-35 0 -62 9t-50 36q-4 -10 -9.5 -21t-14.5 -11h-3
q-49 11 -66.5 39t-17.5 63q0 19 4 37.5t9 35.5l160 499q3 11 5.5 19.5t1.5 15.5v6q2 2 12 2q11 0 28.5 -3t34 -9.5t28 -17.5t11.5 -26q0 1 -12 -31.5t-30.5 -85.5t-40.5 -120t-43 -135q15 37 30 70t33 57.5t39 38.5t47 14q21 0 40 -11t33 -31.5t22.5 -50t8.5 -66.5
q0 -67 -20.5 -134t-66.5 -115zM49 75q10 -16 20 -22.5t20 -6.5q22 0 47 32t47 79t36.5 100.5t14.5 97.5q0 22 -6 37t-20 15q-10 0 -23 -18.5t-28.5 -48t-31 -66.5t-30 -73.5t-27 -69.5t-19.5 -54v-2zM523 145q-17 34 -31.5 62.5t-22.5 62.5q-16 -29 -28.5 -52t-29.5 -51
q5 2 7 1t7 -1q11 0 22.5 -4t22.5 -15q-8 -1 -15.5 -17t-7.5 -36q0 -32 17 -47.5t34 -15.5q16 0 29 12.5t13 38.5q0 27 -17 62z" />
    <glyph glyph-name="b_x" unicode="bx" horiz-adv-x="892" 
d="M441 -8q-11 0 -16 5.5t-5 10.5q0 4 12.5 24t31.5 48.5t42 61.5t45 65q-5 16 -13 48.5t-16 65.5t-14.5 58t-6.5 27q-26 -67 -59 -139.5t-75 -133t-93.5 -100t-115.5 -39.5q-39 0 -68 7.5t-55 37.5q-4 -10 -9.5 -21t-14.5 -11h-3q-37 8 -55.5 26.5t-25 43t-2.5 52t12 53.5
l160 499q3 11 4 22.5t-1 18.5q1 1 6 1.5t10 0.5q11 0 28.5 -3t34 -9.5t28 -17.5t11.5 -26q0 1 -12 -31.5t-30.5 -85.5t-40.5 -120t-43 -135q15 37 30 70t33 57.5t39 38.5t47 14q21 0 40 -11t33 -31.5t22.5 -50t8.5 -66.5q0 -67 -19 -126.5t-62 -102.5q22 12 46 42.5t47 70.5
t44 84t38 83t29 67t17 37q11 0 23.5 1.5t24.5 1.5q27 0 50 -9.5t32 -41.5q4 -14 7.5 -31.5t6.5 -35.5t5.5 -35.5t5.5 -32.5q15 25 32 55t31.5 58t24 51t9.5 34q0 7 -3 12q2 2 13 2q8 0 19.5 -2t22 -6.5t18 -13.5t7.5 -22q0 -14 -13.5 -37.5t-35.5 -54t-50 -65.5t-57 -70
q6 -32 13.5 -64t15.5 -58t16 -42.5t16 -16.5h2q10 9 26 33t36 60t43 81t47 95q11 23 22.5 36t22.5 11q10 -2 11 -14.5t-7 -31.5q-25 -54 -53 -110.5t-54.5 -103t-49.5 -77t-38 -30.5q-36 0 -60.5 7t-42 23.5t-30 42.5t-25.5 65q-21 -27 -40 -53t-35.5 -46.5t-30 -32.5
t-22.5 -12zM49 75q10 -16 20 -22.5t20 -6.5q22 0 47 32t47 79t36.5 100.5t14.5 97.5q0 22 -6 37t-20 15q-10 0 -23 -18.5t-28.5 -48t-31 -66.5t-30 -73.5t-27 -69.5t-19.5 -54v-2z" />
    <glyph glyph-name="o_e" unicode="oe" horiz-adv-x="768" 
d="M89 -2q-31 0 -58 10.5t-47 31t-31.5 49.5t-11.5 66v7q1 46 17 101t44.5 103t70 80t93.5 32q34 0 53.5 -15t29 -35t11.5 -39t2 -26q2 10 2 18q0 16 -4 35t-11.5 35.5t-18.5 28t-25 12.5q9 16 23 25.5t31 9.5q18 0 32 -12t23.5 -33t14 -48t4.5 -57q0 -14 -1 -32t-3.5 -37
t-6 -37.5t-8.5 -33.5q34 -1 64 0q11 45 32 89t49 78.5t62 56t70 21.5q45 0 71 -26.5t28 -70.5q1 -32 -12.5 -58.5t-39 -47.5t-59.5 -37t-73 -27q-11 -36 -16.5 -67t-5.5 -48q0 -19 4.5 -31.5t11.5 -20t15.5 -10.5t16.5 -3q20 0 41 15t42 39.5t40.5 55.5t37 62.5t32 60.5
t24.5 50q3 5 7 13t9.5 15.5t12.5 13t15 5.5t10.5 -6.5t1.5 -14.5t-3.5 -15t-3.5 -10q-10 -22 -25.5 -55t-35 -69t-41.5 -72t-45.5 -65t-47 -47t-46.5 -18q-52 0 -87.5 11t-58 32t-32.5 52t-10 70v16.5t1 16.5q-19 -2 -37.5 -2.5t-36.5 0.5q-16 -41 -37 -76t-47.5 -60.5
t-57 -40t-65.5 -14.5zM150 221q18 16 29.5 36.5t18 42.5t9.5 44.5t3 43.5q0 27 -13 27q-15 0 -39 -32.5t-47 -81.5t-39.5 -105.5t-16.5 -104.5q0 -25 8 -43.5t28 -18.5q16 0 34 13.5t35.5 36t33.5 53t30 64.5q-23 4 -42 10t-32 15zM622 416q-13 0 -26 -12.5t-25.5 -33
t-24.5 -47.5t-22 -55q30 13 51 29.5t34.5 33.5t20 33.5t6.5 28.5q0 10 -3.5 16.5t-10.5 6.5z" />
    <glyph glyph-name="o_m" unicode="om" horiz-adv-x="1147" 
d="M967 45q8 0 24 21.5t37.5 59t47 87t52.5 105.5q11 23 22.5 36t22.5 11q10 -2 11 -14.5t-7 -31.5q-25 -54 -53 -110.5t-54.5 -103t-49.5 -77t-38 -30.5q-77 0 -116 42t-29 108q3 29 12 60t20 61t22 57t18 47q1 3 1 7q0 6 -3 5t-16.5 -28.5t-33 -68t-42 -88.5t-42.5 -90
t-36 -71t-21 -32q-34 0 -57 7.5t-36.5 20.5t-19.5 31t-6 39q0 31 9.5 65t21.5 69q7 19 16 40.5t17 41t13.5 35.5t5.5 26q0 5 -2 3q-4 -4 -18 -32t-34 -68.5t-42 -87t-42 -87t-35 -69.5t-21 -34q-13 0 -30 1t-31 7q-34 14 -46 37t-12 53q0 25 9 64t22.5 85.5t29.5 97t30 99.5
l2 11q-2 17 -15 26t-35 9q-20 0 -43 -7.5t-45 -22.5q15 -39 15 -92q0 -62 -18 -129t-51 -122t-79 -90.5t-101 -35.5q-31 0 -58 11t-46.5 31t-31 49.5t-11.5 65.5v7q1 46 17 101.5t45 102.5t70.5 79t93.5 32q21 0 37 -6t27 -14.5t17.5 -18.5t8.5 -17q-3 25 -17 47t-34 24
l-1 1q23 32 67 49t90 17q41 0 75.5 -14t51.5 -44q6 -12 20.5 -20t28.5 -15.5t25 -16.5t11 -23q0 -4 -1.5 -9.5t-6.5 -17.5q-8 -23 -21 -63t-26 -81.5t-22.5 -78.5t-9.5 -54q0 -5 1 -7q11 21 26 50t31.5 61t33.5 64t32 60t26 49.5t17 32.5q5 10 7.5 17.5t5 13t5.5 8.5t10 3
q12 0 33.5 -2.5t42.5 -9.5t36.5 -20t15.5 -33q0 -10 -5 -23q-4 -10 -12 -31t-18 -48t-21 -57t-20 -57t-14.5 -48.5t-5.5 -30.5v-3q16 29 36 67.5t40.5 78.5t39 76.5t33.5 62.5q2 4 8 15t12.5 23.5t11.5 23.5t5 14v1q0 1 12 1q13 0 35.5 -2.5t44 -10t37.5 -20.5t16 -34
q0 -6 -9.5 -32t-23 -61.5t-28.5 -77t-26 -79.5q-10 -35 -12.5 -56.5t-0.5 -34t8 -17t14 -4.5zM262 370q-6 -19 -18 -26t-23 -7q-9 0 -16 3t-9 8q6 2 10.5 15.5t4.5 27.5q0 10 -3 17t-10 7q-15 0 -39 -32.5t-47 -80.5t-39.5 -104.5t-16.5 -104.5q0 -26 7.5 -45t27.5 -19
q27 0 57 34t55.5 85.5t42 111t16.5 110.5z" />
    <glyph glyph-name="o_n" unicode="on" horiz-adv-x="919" 
d="M739 45q8 0 24 21.5t37.5 59t47 87t52.5 105.5q11 23 22.5 36t22.5 11q10 -2 11 -14.5t-7 -31.5q-25 -54 -53 -110.5t-54.5 -103t-49.5 -77t-38 -30.5q-77 0 -116 42t-29 108q4 28 13.5 59.5t20 62t21.5 57.5t18 45q1 3 1 8q0 6 -3 5q-2 -1 -16 -28.5t-34.5 -68t-44 -88
t-45 -89.5t-38 -71.5t-21.5 -34.5q-23 0 -44.5 5t-38 16.5t-26.5 30.5t-10 47q0 27 9.5 68t23.5 89t30 99t29 96q0 23 -12 32t-30 9q-23 0 -48.5 -9.5t-41.5 -20.5q15 -39 15 -92q0 -62 -18 -129t-51 -122t-79 -90.5t-101 -35.5q-31 0 -58 11t-46.5 31t-31 49.5t-11.5 65.5
v7q1 46 17 101.5t45 102.5t70.5 79t93.5 32q21 0 37 -6t27 -14.5t17.5 -18.5t8.5 -17q-3 25 -17 47t-34 24l-1 1q23 32 67 49t90 17q41 0 75.5 -14t51.5 -44q7 -12 20.5 -20t26.5 -15.5t22.5 -17t9.5 -25.5q0 -3 -6.5 -23.5t-16.5 -50t-21 -65.5t-21 -69.5t-16.5 -61
t-6.5 -41.5q0 -2 0.5 -3t0.5 -3q13 21 29 50.5t33 62t34 65.5t32 62t27 51.5t19 33.5q6 10 9 18t5 13.5t5.5 8.5t11.5 3q14 0 36.5 -3t43.5 -10.5t36.5 -20.5t15.5 -34q0 -6 -6 -24t-16 -43.5t-21.5 -56.5t-23 -63t-20.5 -62.5t-13 -55.5q-5 -34 2.5 -45t18.5 -11zM262 370
q-6 -19 -18 -26t-23 -7q-9 0 -16 3t-9 8q6 2 10.5 15.5t4.5 27.5q0 10 -3 17t-10 7q-15 0 -39 -32.5t-47 -80.5t-39.5 -104.5t-16.5 -104.5q0 -26 7.5 -45t27.5 -19q27 0 57 34t55.5 85.5t42 111t16.5 110.5z" />
    <glyph glyph-name="o_r" unicode="or" horiz-adv-x="717" 
d="M537 45q8 0 24 21.5t37.5 59t47 87t52.5 105.5q11 23 22.5 36t22.5 11q10 -2 11 -14.5t-7 -31.5q-25 -54 -53 -110.5t-54.5 -103t-49.5 -77t-38 -30.5q-80 3 -114.5 44t-25.5 114q8 54 29.5 104t42.5 100q18 43 25 78.5t-9 52.5q-17 -39 -36 -86.5t-41.5 -89t-50.5 -71.5
t-64 -34q-15 -47 -37.5 -85.5t-50 -67t-61 -44t-70.5 -15.5q-31 0 -58 10.5t-47 31t-31.5 49.5t-11.5 66v7q1 46 17 101t44.5 103t70 80t93.5 32q34 0 53.5 -15t29 -35t11.5 -39t2 -26q2 10 2 18q0 16 -4 35t-11.5 35.5t-18.5 28t-25 12.5q9 16 23 25.5t31 9.5
q19 0 33 -12.5t23.5 -33.5t14 -48.5t4.5 -56.5q0 -26 -3 -54.5t-10 -57.5h2q9 0 21 14.5t26 37.5t28.5 51t27.5 55.5t23.5 50.5t16.5 36q3 6 7.5 17.5t8.5 24.5t6 24.5t0 16.5q-2 4 5.5 5t16.5 -1t17.5 -7.5t8.5 -15.5q1 -9 -1.5 -18t-4.5 -19q-2 -14 5 -25t18 -21.5
t22.5 -21t19.5 -23.5q17 -30 14.5 -61t-19.5 -71q-3 -6 -9 -22t-14.5 -37.5t-17.5 -46.5t-16 -50q-11 -35 -14.5 -57t-2 -34t7 -16.5t13.5 -4.5zM232 215q-4 -1 -8 -1h-8q-19 0 -35.5 8.5t-29.5 22.5q2 -1 5 -1q12 0 23 15.5t20 37.5t14 45.5t5 39.5q0 15 -4.5 24t-13.5 9
q-17 0 -42 -32.5t-48 -81.5t-39 -105.5t-16 -104.5q0 -25 8 -43.5t28 -18.5q18 0 37 15t38 40.5t36 59t30 71.5z" />
    <glyph glyph-name="o_s" unicode="os" horiz-adv-x="731" 
d="M497 147q-17 35 -32.5 66.5t-22.5 66.5q-10 -19 -24.5 -38t-31.5 -34.5t-37.5 -25.5t-42.5 -10q-9 0 -14 1q-14 -30 -32.5 -61t-43.5 -56.5t-56.5 -41.5t-70.5 -16q-31 0 -58 10.5t-47 31t-31.5 49.5t-11.5 66v7q1 46 17 101t44.5 103t70 80t93.5 32q34 0 53.5 -15
t29 -35t11.5 -39t2 -26q2 10 2 18q0 16 -4 35t-11.5 35.5t-18.5 28t-25 12.5q9 16 23 25.5t30 9.5q19 0 33.5 -13t24.5 -35t14.5 -50t4.5 -59q0 -40 -6.5 -78.5t-20.5 -72.5q28 3 48 21.5t36 44.5t31 56.5t32.5 58.5t40.5 50t57 32h5q8 0 19.5 -3t22 -8.5t18 -14.5t7.5 -21
q0 -10 -7 -23q-26 -29 -40 -49.5t-14 -47.5q0 -14 6.5 -34t15 -44t15 -50t6.5 -51l-1 -18l18 28q27 49 49 93.5t39 78.5q13 26 24 37.5t23 9.5q7 -1 10 -12t-8 -34q-8 -16 -18 -37t-21 -45t-23.5 -48.5t-24.5 -48.5q-36 -71 -89 -108.5t-120 -38.5h-7h-2q-23 0 -44.5 6.5
t-38 19t-26.5 31.5t-10 44q0 29 18.5 52.5t44.5 23.5q23 0 44 -20q-8 -1 -15.5 -17t-7.5 -36q0 -32 17 -47.5t34 -15.5q16 0 29 12.5t13 38.5q0 27 -17 62zM212 181q-11 0 -24 3t-25 8t-20 12t-9 15q4 -1 7 -1.5t6 -0.5q16 0 29.5 11.5t23 32t14.5 48.5t5 61q0 18 -4.5 30.5
t-15.5 12.5q-12 0 -27 -15t-31 -40.5t-31.5 -58.5t-27.5 -68.5t-19.5 -72t-7.5 -67.5q0 -25 8 -43.5t28 -18.5q10 0 26 8.5t33.5 27t35 47t31.5 69.5h-5z" />
    <glyph glyph-name="o_t" unicode="ot" horiz-adv-x="678" 
d="M499 45q8 0 24 21.5t37.5 59t47 87t52.5 105.5q11 23 22.5 36t22.5 11q10 -2 11 -14.5t-7 -31.5q-25 -54 -53 -110.5t-54.5 -103t-49.5 -77t-38 -30.5q-30 1 -57 9t-46.5 23t-31 37.5t-11.5 53.5q0 22 6 48q4 19 17.5 62t31 96t36.5 109.5t35 101.5q-64 5 -122.5 5.5
t-115.5 -16.5q42 -14 61 -56.5t19 -99.5q0 -64 -19.5 -130t-53 -120t-79 -88.5t-96.5 -34.5q-31 0 -58 11t-46.5 31t-31 49t-11.5 65v8q1 46 17 101t45 102.5t70.5 79.5t93.5 32q21 0 36.5 -6t26.5 -14t17.5 -18t8.5 -17q-3 25 -16.5 46.5t-33.5 23.5q0 8 -1.5 14.5
t-1.5 14.5q0 16 14 30t49 23.5t95 13.5t152 2l24 63q5 12 5 23t-2 16q0 1 5 2t9 1q9 0 26.5 -3.5t34.5 -10.5t29.5 -18t12.5 -27q0 -8 -5 -19.5t-13 -30.5q12 1 41 0t65.5 -2.5t75 -2t70.5 1.5t52.5 7.5t20.5 15.5q0 3 -5 13q4 4 10 4q10 0 15.5 -5.5t7.5 -13t2.5 -15
t0.5 -11.5q0 -21 -8 -33.5t-22 -20t-32.5 -10t-39.5 -2.5q-58 0 -131 4t-145 12q-15 -41 -33.5 -92t-36 -102.5t-32.5 -98.5t-23 -78q-11 -35 -14 -57t-0.5 -34t8 -16.5t13.5 -4.5zM262 370q-6 -19 -18 -26t-23 -7q-9 0 -16 3t-9 8q6 2 10.5 15t4.5 27q0 10 -3 17t-10 7
q-10 0 -24.5 -15t-30 -40t-31.5 -57.5t-28.5 -68.5t-20 -72t-7.5 -69q0 -26 7.5 -44.5t27.5 -18.5q27 0 57 34t55.5 85t42 111t16.5 111z" />
    <glyph glyph-name="o_u" unicode="ou" horiz-adv-x="929" 
d="M749 45q8 0 24 21.5t37.5 59t47 87t52.5 105.5q11 23 22.5 36t22.5 11q10 -2 11 -14.5t-7 -31.5q-25 -54 -53 -110.5t-54.5 -103t-49.5 -77t-38 -30.5q-75 0 -113 35t-33 103q-15 -27 -29 -51.5t-27 -42.5t-24.5 -29t-19.5 -11t-23.5 2.5t-30.5 5.5q-30 7 -50 24
t-30.5 40.5t-11.5 50t5 52.5q4 21 14.5 53t23 67.5t25.5 70t22 60.5q6 34 -8 48.5t-43 14.5q-24 0 -49.5 -7.5t-39.5 -16.5q15 -39 15 -92q0 -62 -18 -129t-51 -122t-79 -90.5t-101 -35.5q-31 0 -58 11t-46.5 31t-31 49.5t-11.5 65.5v7q1 46 17 101.5t45 102.5t70.5 79
t93.5 32q21 0 37 -6t27 -14.5t17.5 -18.5t8.5 -17q-3 25 -17 47t-34 24l-1 1q23 32 67 49t90 17q41 0 75.5 -14t51.5 -44q7 -13 27 -25q11 -4 22.5 -10t20.5 -14q16 -13 19.5 -24t-1.5 -28q-6 -16 -16 -41t-21 -55t-22 -63t-20 -64t-14.5 -58t-5.5 -45q0 -11 4 -19.5
t13 -8.5q10 0 31 28.5t46.5 72t52.5 95.5t49.5 98.5t37 81.5t14.5 45v4q0 2 10 2t27 -3t33.5 -10t28.5 -17.5t12 -25.5q0 -9 -4 -17q-11 -23 -27 -62.5t-31.5 -83t-29 -86.5t-18.5 -74q-4 -30 3.5 -39.5t18.5 -9.5zM262 370q-6 -19 -18 -26t-23 -7q-9 0 -16 3t-9 8
q6 2 10.5 15.5t4.5 27.5q0 10 -3 17t-10 7q-15 0 -39 -32.5t-47 -80.5t-39.5 -104.5t-16.5 -104.5q0 -26 7.5 -45t27.5 -19q27 0 57 34t55.5 85.5t42 111t16.5 110.5z" />
    <glyph glyph-name="o_x" unicode="ox" horiz-adv-x="859" 
d="M408 -8q-11 0 -16 5.5t-5 10.5q0 4 12.5 24t31.5 48.5t42 61.5t45 65q-5 16 -13 48.5t-16 65.5t-14.5 58t-6.5 27q-12 -37 -32.5 -73t-44 -64t-46.5 -45.5t-41 -17.5q-15 -46 -37.5 -85t-50.5 -66.5t-60.5 -42.5t-66.5 -14q-31 1 -58 12t-47 31t-31.5 48.5t-11.5 65.5v7
q1 46 17 101t44.5 103t70 80t93.5 32q34 0 53.5 -15t29 -35t11.5 -39t2 -26q2 10 2 18q0 16 -4 35t-11.5 35.5t-18.5 28t-25 12.5q9 16 23 25.5t31 9.5q18 0 32 -12.5t23.5 -33.5t14.5 -48t5 -57q0 -54 -14 -115q8 -1 24.5 14t35.5 42.5t37 66t29 85.5q11 0 26.5 3t27.5 3
q27 0 50 -9.5t32 -41.5q4 -14 7.5 -31.5t6.5 -35.5t5.5 -35.5t5.5 -32.5q15 25 32 55t31.5 58t24 51t9.5 34q0 7 -3 12q2 2 13 2q8 0 19.5 -2t22 -6.5t18 -13.5t7.5 -22q0 -14 -13.5 -37.5t-35.5 -54t-50 -65.5t-57 -70q6 -32 13.5 -64t15.5 -58t16 -42.5t16 -16.5h2
q10 9 26 33t36 60t43 81t47 95q11 23 22.5 36t22.5 11q10 -2 11 -14.5t-7 -31.5q-25 -54 -53 -110.5t-54.5 -103t-49.5 -77t-38 -30.5q-36 0 -60.5 7t-42 23.5t-30 42.5t-25.5 65q-21 -27 -40 -53t-35.5 -46.5t-30 -32.5t-22.5 -12zM230 213q-2 0 -5 -0.5t-5 -0.5
q-20 0 -37.5 15t-22.5 32q26 0 38.5 24.5t21.5 82.5q1 5 1 8.5v7.5q0 14 -4.5 23.5t-14.5 9.5q-18 0 -43 -32.5t-48.5 -81.5t-39.5 -105.5t-16 -104.5q0 -25 8 -43.5t28 -18.5q17 0 36 14t37.5 38.5t35 58.5t30.5 73z" />
    <glyph glyph-name="o_z" unicode="oz" horiz-adv-x="826" 
d="M549 461q26 0 53 6t47 6q11 0 26.5 -2t30 -8t24.5 -17t10 -28q0 -18 -13 -43t-33 -53.5t-45 -60l-50 -63t-46 -61.5t-34 -56q-8 -16 -8 -21t5 -5q6 0 19 6t30.5 13t37 13t37.5 6q11 0 21.5 -3t18.5 -8q24 35 57 98t70 138q11 23 22.5 36t22.5 11q10 -2 11 -14.5t-7 -31.5
q-23 -48 -48 -99.5t-49 -95.5t-46.5 -76.5t-38.5 -44.5q-5 -4 -12.5 -5.5t-14.5 6.5q-9 10 -18.5 12t-21.5 2q-26 0 -50.5 -8t-46.5 -8q-24 0 -42.5 9t-30.5 23t-18.5 32.5t-6.5 38.5q0 29 14 57q7 15 30 43.5t51.5 64t57 72.5t46.5 68q5 10 5 12q0 3 -4 3q-3 0 -8.5 -2.5
t-11.5 -4.5q-20 -9 -42.5 -15t-42.5 -6q-8 0 -16 1t-15 4q-11 -27 -25.5 -58.5t-34 -59t-46 -46t-60.5 -18.5q-15 -46 -37.5 -86.5t-50.5 -70.5t-62 -47.5t-71 -17.5q-31 0 -58 10.5t-47 31t-31.5 49.5t-11.5 66v7q1 46 17 101t44.5 103t70 80t93.5 32q34 0 53.5 -15t29 -35
t11.5 -39t2 -26q2 10 2 18q0 16 -4 35t-11.5 35.5t-18.5 28t-25 12.5q9 16 23 25.5t31 9.5q18 0 32 -12.5t23.5 -33.5t14.5 -48t5 -57q0 -27 -2.5 -53t-9.5 -55q13 -1 28.5 11t32 34.5t33 54.5t32.5 70q1 6 1 14.5t2.5 17t7 14.5t14.5 7q20 -14 37.5 -22t38.5 -8zM236 227
q-2 0 -5 -0.5t-5 -0.5q-20 0 -40.5 8t-25.5 25q26 0 38.5 24.5t21.5 82.5q1 5 1 8.5v7.5q0 14 -4.5 23.5t-14.5 9.5q-18 0 -43 -32.5t-48.5 -81.5t-39.5 -105.5t-16 -104.5q0 -25 8 -43.5t28 -18.5q17 0 37 16t39.5 43.5t37 63.5t31.5 75z" />
    <glyph glyph-name="s_s" unicode="ss" horiz-adv-x="588" 
d="M61 147q-17 35 -32.5 66.5t-22.5 66.5l-5 -10q-8 -14 -17 -22t-17 -8q-11 0 -11 15q0 10 11 34q7 15 21 47t33.5 64.5t45 57t55.5 24.5q8 0 19.5 -3t22 -8.5t18 -14.5t7.5 -21q0 -10 -7 -23q-26 -29 -40 -49.5t-14 -47.5q0 -14 6.5 -34t15 -44t15 -50t6.5 -51v-12l14 22
q27 49 49 93.5t39 78.5l7 14t7 11q10 22 23.5 47t30 45t36 33.5t41.5 13.5q8 0 19.5 -3t22 -8.5t18 -14.5t7.5 -21q0 -10 -7 -23q-26 -29 -40 -49.5t-14 -47.5q0 -14 6.5 -34t15 -44t15 -50t6.5 -51v-12l14 22q27 49 49 93.5t39 78.5q13 26 24 37.5t23 9.5q7 -1 10 -12
t-8 -34q-8 -16 -18 -37t-21 -45t-23.5 -48.5t-24.5 -48.5q-35 -70 -87.5 -107.5t-118.5 -39.5q-27 2 -32 2.5t-6 0.5q-34 7 -59.5 28t-30.5 57q-67 -85 -168 -88q-27 2 -32 2.5t-6 0.5q-37 8 -63.5 32t-26.5 66q0 29 18.5 52.5t44.5 23.5q23 0 44 -20q-8 -1 -15.5 -17
t-7.5 -36q0 -32 17 -47.5t34 -15.5q16 0 29 12.5t13 38.5q0 27 -17 62zM357 147q-17 34 -32 65t-23 65q-11 -24 -25 -52l-28 -56q3 0 5.5 0.5t5.5 0.5q23 0 44 -20q-8 -1 -15.5 -17t-7.5 -36q0 -32 17 -47.5t34 -15.5q16 0 29 12.5t13 38.5q0 27 -17 62z" />
    <glyph glyph-name="s_r" unicode="sr" horiz-adv-x="572" 
d="M392 45q8 0 24 21.5t37.5 59t47 87t52.5 105.5q11 23 22.5 36t22.5 11q10 -2 11 -14.5t-7 -31.5q-25 -54 -53 -110.5t-54.5 -103t-49.5 -77t-38 -30.5q-80 3 -114.5 44t-25.5 114q8 54 29.5 104t42.5 100q18 43 25 78.5t-9 52.5q-47 -110 -80 -187t-56.5 -128.5
t-39.5 -81t-29 -44.5q-26 -29 -56 -43t-72 -14q-23 0 -44.5 6.5t-38.5 19t-27.5 31.5t-10.5 44q0 29 18.5 52.5t44.5 23.5q23 0 44 -20q-8 -1 -15.5 -17t-7.5 -36q0 -32 17 -47.5t34 -15.5q16 0 29 12.5t13 38.5q0 19 -9.5 42.5t-22 49.5t-24.5 52.5t-16 50.5l-5 -10
q-8 -14 -17 -22t-17 -8q-11 0 -11 15q0 12 11 34q7 15 21 47t33.5 64.5t45 57t55.5 24.5q8 0 19.5 -3t22 -8.5t18 -14.5t7.5 -21q0 -10 -7 -23q-26 -29 -40 -49.5t-14 -47.5q0 -11 6 -33.5t13 -46.5t13.5 -43t7.5 -23q19 41 38.5 85.5l39 89t38.5 87t37 78.5q3 6 7.5 17.5
t8.5 24.5t6 24.5t0 16.5q-2 4 5.5 5t16.5 -1t17.5 -7.5t8.5 -15.5q1 -9 -1.5 -18t-4.5 -19q-2 -14 5 -25t18 -21.5t22.5 -21t19.5 -23.5q17 -30 14.5 -61t-19.5 -71q-3 -6 -9 -22t-14.5 -37.5t-17.5 -46.5t-16 -50q-11 -35 -14.5 -57t-2 -34t7 -16.5t13.5 -4.5z" />
    <glyph glyph-name="s_x" unicode="sx" horiz-adv-x="716" 
d="M61 147q-17 35 -32.5 66.5t-22.5 66.5l-5 -10q-8 -14 -17 -22t-17 -8q-11 0 -11 15q0 10 11 34q7 15 21 47t33.5 64.5t45 57t55.5 24.5q8 0 19.5 -3t22 -8.5t18 -14.5t7.5 -21q0 -10 -7 -23q-26 -29 -40 -49.5t-14 -47.5q0 -14 6.5 -34t15 -44t15 -50t6.5 -51v-12
q22 31 40 71.5t33 86.5t27.5 94t25.5 94q11 0 29.5 2.5t30.5 2.5q27 0 50 -9.5t32 -41.5q4 -14 7.5 -31.5t6.5 -35.5t5.5 -35.5t5.5 -32.5q15 25 32 55t31.5 58t24 51t9.5 34q0 7 -3 12q2 2 13 2q8 0 19.5 -2t22 -6.5t18 -13.5t7.5 -22q0 -14 -13.5 -37.5t-35.5 -54
t-50 -65.5t-57 -70q6 -32 13.5 -64t15.5 -58t16 -42.5t16 -16.5h2q10 9 26 33t36 60t43 81t47 95q11 23 22.5 36t22.5 11q10 -2 11 -14.5t-7 -31.5q-25 -54 -53 -110.5t-54.5 -103t-49.5 -77t-38 -30.5q-36 0 -60.5 7t-42 23.5t-30 42.5t-25.5 65q-21 -27 -40 -53
t-35.5 -46.5t-30 -32.5t-22.5 -12q-11 0 -16 5.5t-5 10.5q0 4 12.5 24t31.5 48.5t42 61.5t45 65q-5 16 -13 48.5t-16 65.5t-14.5 58t-6.5 27q-8 -25 -17.5 -59t-21 -70.5t-24 -72.5t-27.5 -64q-35 -70 -87.5 -107.5t-118.5 -39.5q-27 2 -32 2.5t-6 0.5q-37 8 -63.5 32
t-26.5 66q0 29 18.5 52.5t44.5 23.5q23 0 44 -20q-8 -1 -15.5 -17t-7.5 -36q0 -32 17 -47.5t34 -15.5q16 0 29 12.5t13 38.5q0 27 -17 62z" />
    <glyph glyph-name="v_r" unicode="vr" horiz-adv-x="700" 
d="M499 440q1 3 1 8q0 11 -6.5 13.5t-12.5 9.5q-30 -65 -54 -113.5t-50 -81.5t-57 -51t-74 -21q-23 -42 -46.5 -79t-45.5 -64.5t-41 -43t-33 -15.5q-10 0 -24 2t-27 5q-52 10 -73.5 44t-21.5 77q0 20 5 45q14 63 36 126t45 129q4 12 6.5 21.5t2.5 15.5v4q2 2 11 2
q10 0 27 -3t33 -10t27.5 -18t11.5 -26l-7 -20t-18 -51t-23 -70t-23 -77.5t-18 -72.5t-7 -56q0 -27 16 -27q13 0 30 18t34 45t33.5 57.5t27.5 55.5q-14 4 -24.5 15t-10.5 22q0 6 4.5 16.5t12.5 14.5q8 -12 18 -15t18 -4q23 57 35 101t12 82q0 18 -7 22q0 2 15 2q10 0 22.5 -2
t24 -6.5t19.5 -12.5t8 -21q0 -26 -12.5 -68t-44.5 -105q19 2 38.5 19.5t37.5 43t34 55.5t29 56.5t22.5 47.5t13.5 28q-1 1 -1 5q0 17 10 32.5t10 34.5q0 2 -1 3q0 1 6 1q8 0 21.5 -6t13.5 -25q0 -7 -4.5 -17t-4.5 -21q0 -18 17.5 -29.5t38.5 -20.5t38.5 -19t17.5 -26
q0 -9 -28.5 -77t-66.5 -187q-11 -35 -14.5 -57t-2 -34t7 -16.5t13.5 -4.5t24 21.5t37.5 59t47 87t52.5 105.5q11 23 22.5 36t22.5 11q10 -2 11 -14.5t-7 -31.5q-25 -54 -53 -110.5t-54.5 -103t-49.5 -77t-38 -30.5q-29 2 -51.5 7.5t-39.5 16.5q-36 26 -44.5 61.5t-4.5 72.5
q6 38 18 74.5t27 71.5t30.5 69t28.5 69z" />
    <glyph glyph-name="w_r" unicode="wr" horiz-adv-x="938" 
d="M737 440q1 3 1 8q0 11 -8.5 15.5t-14.5 11.5q-35 -78 -61.5 -129t-52 -82t-55 -44.5t-69.5 -15.5q-22 -43 -45 -80t-44.5 -64t-40.5 -42.5t-32 -15.5q-40 0 -67.5 10.5t-45 28t-25 41.5t-7.5 51q-13 -26 -26 -49.5t-24.5 -41t-22 -27.5t-19.5 -10q-39 0 -67 10t-45.5 27
t-25.5 39.5t-8 48.5q0 11 1 23t4 24q14 63 36 125t48 130q6 16 8 29.5t11 13.5q10 0 27 -3t33.5 -10t28.5 -18t12 -27q0 -5 -1 -8.5t-3 -8.5q-6 -16 -16 -41t-21 -55t-22 -63t-20 -64t-14.5 -58t-5.5 -45q0 -11 4 -19.5t13 -8.5q11 0 27 21t34 54t38 75t38 83.5t33.5 79
t25.5 62.5q3 8 8.5 23t5.5 24v3q2 2 11 2q10 0 27 -3t33 -10t27.5 -18t11.5 -26q0 -2 -7 -22t-18 -51t-23.5 -69t-23.5 -76t-18 -71.5t-7 -55.5q0 -29 14 -29q12 0 28.5 16.5t33 42t32 56t27.5 57.5q-15 6 -20.5 16t-5.5 20q0 12 7 24.5t10 12.5q2 -10 10 -17t19 -12
q20 54 30.5 102t10.5 87q0 20 -8 25q2 2 16 2q10 0 22.5 -2t24 -6.5t19.5 -12.5t8 -21v-11q0 -28 -14 -71.5t-40 -97.5q37 5 66.5 38.5t52.5 75t39 82.5t27 61q-1 1 -1 5q0 17 10 32.5t10 34.5q0 2 -1 3q0 1 6 1q8 0 21.5 -6t13.5 -25q0 -7 -4.5 -17t-4.5 -21
q0 -18 17.5 -29.5t38.5 -20.5t38.5 -19t17.5 -26q0 -9 -28.5 -77t-66.5 -187q-11 -35 -14.5 -57t-2 -34t7 -16.5t13.5 -4.5t24 21.5t37.5 59t47 87t52.5 105.5q11 23 22.5 36t22.5 11q10 -2 11 -14.5t-7 -31.5q-25 -54 -53 -110.5t-54.5 -103t-49.5 -77t-38 -30.5
q-29 2 -51.5 7.5t-39.5 16.5q-36 26 -44.5 61.5t-4.5 72.5q6 38 18 74.5t27 71.5t30.5 69t28.5 69z" />
    <glyph glyph-name="p_r" unicode="pr" horiz-adv-x="762" 
d="M26 34q-9 -38 -17 -74t-14 -69q-5 -29 -8.5 -60.5t-8 -58t-11.5 -43.5t-20 -17q-26 0 -44 9.5t-29 25t-16.5 35t-5.5 38.5q0 22 5.5 44.5t13.5 44.5t16.5 44t15.5 43q10 33 21.5 75t23.5 87t23 89.5t20.5 82.5t17 66t10.5 40t3 26q0 7 -1 9q-1 1 10 1q10 0 27 -2
t33.5 -7.5t29 -14.5t14.5 -23q23 26 50.5 40.5t54.5 14.5q24 0 43.5 -12.5t32.5 -34.5t20 -50.5t7 -59.5q0 -38 -7 -76t-20.5 -73.5t-32.5 -67t-43 -54.5q22 8 49.5 31.5t49.5 62.5q27 48 52.5 102t48.5 104t41 91.5t30 65.5q-1 1 -1 5q0 17 10 32.5t10 34.5q0 2 -1 3
q0 1 6 1q8 0 21.5 -6t13.5 -25q0 -7 -4.5 -17t-4.5 -21q0 -18 17.5 -29.5t38.5 -20.5t38.5 -19t17.5 -26q0 -9 -28.5 -77t-66.5 -187q-11 -35 -14.5 -57t-2 -34t7 -16.5t13.5 -4.5t24 21.5t37.5 59t47 87t52.5 105.5q11 23 22.5 36t22.5 11q10 -2 11 -14.5t-7 -31.5
q-25 -54 -53 -110.5t-54.5 -103t-49.5 -77t-38 -30.5q-29 2 -51.5 7.5t-39.5 16.5q-36 26 -44.5 61.5t-4.5 72.5q6 38 18 74.5t27 71.5t30.5 69t28.5 69q1 3 1 8q0 11 -7 14.5t-13 10.5q-31 -71 -53 -121t-39.5 -87.5t-31.5 -66.5t-29 -58q-40 -79 -97.5 -114.5
t-134.5 -32.5q-13 0 -31 1.5t-37 5.5t-36 12t-27 22zM82 244q-11 -40 -22 -79t-21 -78q17 -32 43 -32q24 0 49 32t45.5 78.5t33.5 99t13 94.5q0 23 -5.5 36t-17.5 13q-17 0 -34 -17.5t-33 -42.5t-29 -53.5t-22 -50.5z" />
    <glyph glyph-name="O_r" unicode="Or" horiz-adv-x="965" 
d="M785 45q8 0 24 21.5t37.5 59t47 87t52.5 105.5q11 23 22.5 36t22.5 11q10 -2 11 -14.5t-7 -31.5q-25 -54 -53 -110.5t-54.5 -103t-49.5 -77t-38 -30.5q-80 3 -114.5 44t-25.5 114q8 54 29.5 104t42.5 100q18 43 25 75.5t-9 49.5q-10 -26 -30 -60.5t-48.5 -73t-65.5 -77.5
t-82 -72q-25 -46 -58 -87.5t-75 -76.5q-32 -27 -66.5 -40.5t-66.5 -13.5q-57 0 -99.5 40t-48.5 119q-52 31 -79.5 84t-27.5 116q0 75 31 143.5t81 121t113.5 84t129.5 31.5q48 0 90.5 -15t74.5 -46t51 -77t19 -109q0 -42 -7 -86t-19 -84q31 25 56 56t44 60.5t31.5 52.5
t17.5 34q3 6 7.5 17.5t8.5 24.5t6 24.5t0 16.5q-2 4 5.5 5t16.5 -1t17.5 -7.5t8.5 -15.5q1 -9 -1.5 -18t-4.5 -19q-2 -14 5 -25t18 -21.5t22.5 -21t19.5 -23.5q17 -30 14.5 -61t-19.5 -71q-3 -6 -9 -22t-14.5 -37.5t-17.5 -46.5t-16 -50q-11 -35 -14.5 -57t-2 -34t7 -16.5
t13.5 -4.5zM322 410q-32 -60 -56 -123t-37 -115q53 -13 102.5 -2.5t95.5 34.5q19 45 33 92.5t24 91.5t15 80.5t5 57.5q0 78 -31 114.5t-79 36.5q-38 0 -74 -19.5t-67.5 -52t-58.5 -74.5t-46 -86t-29.5 -86.5t-10.5 -76.5q0 -28 7 -48q10 47 26 88.5t31.5 75t26.5 56.5t11 34
v4q2 2 8 2q10 0 28.5 -4t36.5 -12t31 -20t13 -28q0 -11 -5 -20zM264 28q38 0 70 29t58 76q-40 -14 -83 -19t-91 2q-1 -7 -1 -13v-11q0 -31 13.5 -47.5t33.5 -16.5z" />
    <glyph glyph-name="t_t" unicode="tt" horiz-adv-x="486" 
d="M306 45q8 0 24 21.5t37.5 59t47 87t52.5 105.5q11 23 22.5 36t22.5 11q10 -2 11 -14.5t-7 -31.5q-25 -54 -53 -110.5t-54.5 -103t-49.5 -77t-38 -30.5q-30 1 -57 9t-46.5 23t-31 37.5t-11.5 53.5v2q-30 -57 -56.5 -90.5t-47.5 -33.5q-9 0 -22.5 2t-26.5 5
q-50 10 -70.5 41.5t-20.5 73.5q0 23 6 49q5 23 18 65.5t30.5 94t36.5 106.5t36 103q-15 1 -29 1.5t-27 0.5q-38 0 -62.5 -5t-30.5 -19q-5 10 -5 17q0 17 8 28t27.5 17t53 8.5t84.5 2.5l23 63q5 12 6 23.5t-4 16.5q0 1 5.5 1.5t9.5 0.5q9 0 26.5 -3.5t34.5 -10.5t29.5 -18
t12.5 -26q0 -10 -5.5 -21t-13.5 -31q17 0 47.5 -2.5t67.5 -5.5l28 76q5 12 5 23t-2 16q0 1 5 2t9 1q9 0 26.5 -3.5t34.5 -10.5t29.5 -18t12.5 -27q0 -6 -7.5 -25.5t-15.5 -39.5q37 1 61.5 6t24.5 19q0 3 -5 13q4 4 10 4q10 0 15.5 -5.5t7.5 -13t2.5 -15t0.5 -11.5
q0 -21 -8 -33.5t-22 -20t-32.5 -10t-39.5 -2.5h-16t-25 2q-15 -41 -32 -89.5t-33.5 -96t-30 -90t-20.5 -71.5q-11 -35 -14 -57t-0.5 -34t8 -16.5t13.5 -4.5zM179 528q-14 -37 -30 -81.5t-31.5 -91t-30.5 -92t-26 -84t-17.5 -68t-6.5 -43.5q0 -29 14 -29q12 0 32.5 26.5
t43.5 65.5t46.5 83.5t41.5 80.5h1l2 -1q17 53 37 111.5t37 109.5z" />
    <glyph glyph-name="O_n" unicode="On" horiz-adv-x="1158" 
d="M978 45q8 0 24 21.5t37.5 59t47 87t52.5 105.5q11 23 22.5 36t22.5 11q10 -2 11 -14.5t-7 -31.5q-25 -54 -53 -110.5t-54.5 -103t-49.5 -77t-38 -30.5q-77 0 -116 42t-29 108q4 28 13.5 59.5t20 62t21.5 57.5t18 45q1 3 1 8q0 6 -3 5q-2 -1 -16 -28.5t-34.5 -68t-44 -88
t-45 -89.5t-37.5 -71.5t-22 -34.5q-23 0 -44.5 5t-38 16.5t-26.5 30.5t-10 47q0 25 9 64t21.5 83.5t27 90t26.5 83.5q3 11 -1.5 21.5t-17.5 10.5q-19 0 -40.5 -23.5t-45.5 -53.5q-10 -50 -29 -99.5t-44.5 -94.5t-55.5 -83t-62 -65t-66.5 -40.5t-66.5 -13.5q-57 0 -99.5 40
t-48.5 119q-52 31 -79.5 84t-27.5 116q0 75 31 143.5t81 121t113.5 84t129.5 31.5q47 0 88.5 -14.5t73 -43.5t51 -73t22.5 -104q30 19 61 19q17 0 35 -6t38 -20q10 -7 24 -11t27 -9t22 -13.5t9 -24.5q0 -3 -6.5 -23.5t-16.5 -50t-21 -65.5t-21 -69.5t-16.5 -61t-6.5 -41.5
q0 -2 0.5 -3t0.5 -3q13 21 30 51.5t35 64t35.5 67t32.5 62.5t26 50.5t15 29.5q6 13 7.5 25t-1.5 14q-2 1 8.5 2.5t16.5 1.5q14 0 36.5 -3t43.5 -10.5t36.5 -20.5t15.5 -34q0 -6 -6 -24t-16 -43.5t-21.5 -56.5t-23 -63t-20.5 -62.5t-13 -55.5q-5 -34 2.5 -45t18.5 -11z
M264 28q24 0 49.5 20t50 53.5t46.5 77t40 90.5q-19 0 -37.5 15t-36.5 50q32 0 58.5 17.5t53.5 43.5q8 35 12 68.5t4 62.5q0 78 -31 114.5t-79 36.5q-38 0 -74 -19.5t-67.5 -52t-58.5 -74.5t-46 -86t-29.5 -86.5t-10.5 -76.5q0 -28 7 -48q10 47 26 88.5t31.5 75t26.5 56.5
t11 34v4q2 2 8 2q10 0 28.5 -4t36.5 -12t31 -20t13 -28q0 -11 -5 -20q-15 -28 -29.5 -61t-27.5 -67.5t-23.5 -68.5t-16.5 -65q-3 -17 -5.5 -37.5t0 -39t12.5 -31t32 -12.5z" />
    <glyph glyph-name="T_h" unicode="Th" horiz-adv-x="956" 
d="M986 319q-9 -19 -23.5 -50.5t-32.5 -67t-37.5 -71.5t-38 -65.5t-35 -48t-27.5 -18.5q-39 0 -66.5 10t-45 27.5t-25.5 40t-8 48.5q0 31 7.5 63t18 63.5t23 62t23.5 59.5q2 6 2 8q0 5 -3 5q-2 -2 -15.5 -30.5t-33 -70t-42.5 -89.5t-44.5 -89.5t-38.5 -69.5t-25 -31
q-3 -1 -8 -1q-29 0 -48.5 9.5t-31.5 24.5t-17.5 33t-5.5 36q0 27 7 54.5t15 50.5l124 381q-51 -4 -102 -9t-89 -9q46 -2 68.5 -19t22.5 -37q0 -4 -1 -7.5t-3 -8.5q-7 -16 -21.5 -52t-32 -82t-36.5 -98t-34 -100t-25 -87.5t-10 -60.5q0 -23 16 -23q6 0 16 8q5 -2 4 -5t-1 -5
l-2 -4.5t-5 -9t-7.5 -8.5t-8.5 -4h-1q-63 12 -88.5 43.5t-25.5 76.5q0 21 7.5 52.5t19 69t26.5 78t30 80.5l28.5 76t22.5 64q1 4 3.5 12.5t2 17t-6 15t-19.5 6.5q-65 -9 -110 -15t-83 -6q-107 0 -107 103q0 10 6.5 19.5t15.5 19.5t17 20t11 21q6 -4 10 -8t7 -9t3 -10
q0 -8 -9 -20.5t-9 -22.5q0 -8 6.5 -13t23.5 -5q8 0 12 1q48 4 110 11t128 15t131.5 14.5t119.5 9.5q2 9 2.5 18.5t-2.5 14.5q1 1 6 2t10 1q9 0 22.5 -2t27.5 -7t26.5 -12.5t18.5 -17.5q36 -5 55.5 -14t28.5 -19.5t10 -20.5t1 -16q0 -19 -4.5 -38.5t-13.5 -25.5
q-5 -4 -15.5 -8t-23 -8t-24.5 -6.5t-21 -2.5q-2 4 -2 11q0 10 9.5 15t21.5 9t21.5 8.5t9.5 14.5q0 16 -67 16h-2q-12 -33 -27.5 -77.5t-32 -94l-33 -99t-29.5 -91.5t-21 -72.5t-8 -40.5q0 -5 2 -5q17 32 36.5 70.5t38 76t35.5 71.5t30 58q4 7 9 18t9 22.5t6 21t1 14.5
q1 1 9.5 1.5t15.5 0.5q14 0 37 -3t44.5 -11t37.5 -21t16 -34q0 -10 -4 -21q-11 -26 -28 -68t-32.5 -87.5t-26.5 -87.5t-11 -68q0 -25 18 -27q8 -1 20.5 13.5t28 38.5t32 54.5t32 61t29.5 58t23 46.5q2 4 6 11.5t9.5 15.5t13 14t16.5 6q5 0 8 -5t3 -12q0 -5 -2 -14t-5 -15z
" />
    <glyph glyph-name="t_h" unicode="th" horiz-adv-x="713" 
d="M743 319q-9 -19 -23.5 -50.5t-32.5 -67t-37.5 -71.5t-38 -65.5t-35 -48t-27.5 -18.5q-39 0 -66.5 10t-45 27.5t-25.5 40t-8 48.5q0 31 7.5 63t18 63.5t23 62t23.5 59.5q2 6 2 8q0 5 -3 5q-2 -2 -15.5 -30.5t-33 -70t-42.5 -89.5t-44.5 -89.5t-38.5 -69.5t-25 -31
q-3 -1 -8 -1q-28 0 -47.5 9.5t-32 24t-18 32.5t-5.5 35q-27 -47 -50 -76.5t-38 -30.5q-92 2 -125 48t-15 123q9 37 24 84.5t32 97.5t33.5 98.5t29.5 86.5q-3 0 -6 0.5t-5 0.5q-54 2 -90.5 -3t-45.5 -20q-5 10 -8 23q-3 15 4.5 24.5t24 15t41 8.5t55.5 5q11 1 24 1.5t28 0.5
q7 19 12.5 34.5t9.5 27.5q5 14 5 23.5t-2 14.5q2 2 13 2.5t26 -2.5t31 -8.5t28 -14t17 -21t-2 -28.5q-5 -14 -12 -30q26 -1 52.5 -1.5t52.5 -2.5l31 94q3 9 4.5 22t-2.5 19q1 1 6 2t10 1q11 0 28 -3t33.5 -10t28 -18t11.5 -27q0 -7 -3 -16l-25 -68q37 -1 70 -0.5t58 2
t40.5 5.5t17.5 11t2 15.5t-5 17.5q5 4 10.5 4t10.5 -2.5t8.5 -6.5t3.5 -6q11 -49 1.5 -74.5t-31.5 -36t-51.5 -10.5t-57.5 3q-20 2 -45.5 4.5t-55.5 4.5q-20 -55 -41 -117.5t-39 -118.5t-29.5 -97.5t-11.5 -54.5q0 -5 2 -5q17 32 36.5 70.5t38 76t35.5 71.5t30 58q4 7 9 18
t9 22.5t6 21t1 14.5q1 1 9.5 1.5t15.5 0.5q14 0 37 -3t44.5 -11t37.5 -21t16 -34q0 -10 -4 -21q-11 -26 -28 -68t-32.5 -87.5t-26.5 -87.5t-11 -68q0 -25 18 -27q8 -1 20.5 13.5t28 38.5t32 54.5t32 61t29.5 58t23 46.5q2 4 6 11.5t9.5 15.5t13 14t16.5 6q5 0 8 -5t3 -12
q0 -5 -2 -14t-5 -15zM55 157q-11 -35 -14 -57t-0.5 -34t8 -16.5t13.5 -4.5t23.5 21t36 57t45.5 84t52 102l69 213l-109 7q-21 -59 -40.5 -114.5t-36 -104t-28.5 -88t-19 -65.5z" />
    <glyph glyph-name=".notdef" horiz-adv-x="200" 
 />
    <glyph glyph-name=".null" horiz-adv-x="0" 
 />
    <glyph glyph-name="nonmarkingreturn" unicode="&#xd;" horiz-adv-x="200" 
 />
    <glyph glyph-name="NULL" horiz-adv-x="0" 
 />
    <glyph glyph-name="NULL" horiz-adv-x="0" 
 />
    <glyph glyph-name="space" unicode=" " horiz-adv-x="200" 
 />
    <glyph glyph-name="exclam" unicode="!" horiz-adv-x="264" 
d="M205 718q4 2 11.5 4t18.5 2q12 0 26 -2.5t25.5 -8.5t19 -15.5t7.5 -22.5q0 -10 -4 -21q-6 -19 -18.5 -54t-28 -79t-31.5 -92t-29 -92.5t-21.5 -81t-8.5 -56.5q0 -14 5 -18.5t14 -4.5q0 -14 -6 -18.5t-17 -4.5q-46 0 -66.5 30t-20.5 69q0 24 6 48q4 17 14.5 48.5t24 70.5
t28 81.5t26.5 81.5t20 71t8 50q0 10 -3 15zM48 32q-2 8 -2 13q0 21 10.5 42t10.5 36q0 4 -2 10q-2 3 20 3q10 0 22 -1.5t23 -6t18.5 -11.5t7.5 -19t-3.5 -25.5t-8 -25.5t-8 -22t-3.5 -16q0 -4 2 -6q-16 -4 -33 -4q-22 0 -36 8t-18 25z" />
    <glyph glyph-name="quotedbl" unicode="&#x22;" horiz-adv-x="372" 
d="M146 506q-5 -1 -15 -1q-55 0 -55 47q0 11 5 24t5 29q0 6 -5 10t-11 6.5t-11 4.5t-5 5q0 18 6 30t14 19.5t14.5 10.5t8.5 4q1 0 3 0.5t5 0.5q7 0 20 -2t25 -7t21 -13t9 -21q0 -21 -6.5 -40t-14 -36t-14 -31.5t-6.5 -24.5q0 -9 7 -15zM281 491q-5 -1 -15 -1q-55 0 -55 47
q0 11 5 24t5 29q0 6 -5 10t-11 6.5t-11 4.5t-5 5q0 18 6 30t14 19.5t14.5 10.5t8.5 4q1 0 3 0.5t5 0.5q7 0 20 -2t25 -7t21 -13t9 -21q0 -21 -6.5 -40t-14 -36t-14 -31.5t-6.5 -24.5q0 -9 7 -15z" />
    <glyph glyph-name="numbersign" unicode="#" horiz-adv-x="993" 
d="M855 508q7 -22 7 -40q0 -28 -18 -36.5t-47 -8.5h-71.5t-68.5 1l-30 -124q45 -2 84.5 -2.5t70.5 -0.5h37.5t23.5 1q7 -22 7 -40q0 -29 -20 -37.5t-51 -8.5q-45 0 -87.5 1t-84.5 3q-11 -51 -22 -103t-21 -109q-44 9 -59 27t-15 42q0 16 2 30t6 30.5t9.5 37t12.5 48.5
l-129 3q-12 -53 -23 -106.5t-21 -111.5q-44 9 -59.5 27t-15.5 43q0 19 5.5 40t10.5 44l16 65h-48q-32 0 -65 -0.5t-67 -1.5q0 30 6.5 48t18.5 27t28.5 12t35.5 3h21.5h20.5t27.5 -0.5t42.5 -1.5q7 29 14.5 60.5t15.5 63.5h-78h-70t-72 -2q0 30 6.5 48t18.5 27t28 12t35 3
h22.5t22 -0.5t38 -1t69.5 -1.5q9 36 17 69t14 60t10 47t5 30q5 0 8.5 0.5t7.5 0.5q34 0 46 -13t12 -34q0 -8 -1 -16.5t-3 -17.5l-29 -129l129 -4q9 37 17.5 71.5t14.5 62.5t10 48.5t4 30.5q5 0 8.5 0.5t7.5 0.5q35 0 47.5 -13t12.5 -35q0 -8 -1 -16t-3 -17l-31 -136
q32 -1 60 -1.5t51 -0.5t40 0.5t26 1.5zM411 306q30 0 63 -1t67 -3q7 29 14.5 61t15.5 64l-130 4z" />
    <glyph glyph-name="dollar" unicode="$" horiz-adv-x="394" 
d="M216 747q3 0 6.5 0.5t6.5 0.5q20 0 33 -7t21.5 -19.5t12.5 -28.5t5 -34q27 -12 50 -35.5t23 -58.5q0 -30 -10 -58.5t-23.5 -57t-28 -57t-22.5 -58.5q-34 5 -59 15.5t-25 39.5q0 18 10 41q11 26 24 51.5t24.5 49t19 43.5t7.5 35q0 18 -13 18q-8 0 -17 -5.5t-15 -11.5
q-20 -21 -40.5 -47.5t-37 -56.5t-27 -62.5t-10.5 -63.5q0 -41 17.5 -69t38.5 -51.5t38.5 -46t17.5 -52.5q0 -27 -12 -50t-31.5 -41t-44 -30.5t-48.5 -18.5q-1 -20 -1.5 -36t-0.5 -29q0 -35 2 -46.5t4 -16.5q-8 -4 -17 -4q-14 0 -23 11t-14 28.5t-6.5 39.5t-1.5 45h-9
q-54 0 -75 22t-21 54q0 25 7 47q5 -11 24 -16.5t44 -5.5q29 0 57 6t50.5 16t36 23.5t13.5 28.5q0 13 -12 25.5t-30.5 25.5t-39.5 28t-39.5 35t-30.5 46t-12 61q0 42 17.5 85.5t46.5 80t66.5 62t78.5 32.5q2 35 2.5 51t0.5 21q0 4 -1 4q0 -1 -1 -1h-2q-1 0 -4 3z" />
    <glyph glyph-name="percent" unicode="%" horiz-adv-x="755" 
d="M235 734q7 0 18 -4.5t21 -10.5t17.5 -13t7.5 -13q21 0 39.5 -9.5t32 -25t21.5 -35t8 -40.5v-8t-1 -8q-8 -44 -25 -77t-40 -56t-49 -34.5t-51 -11.5q-27 0 -55.5 9t-51.5 26t-38 41.5t-16 55.5q0 38 18.5 76t44.5 69t53.5 50t45.5 19zM522 344q7 0 18.5 -4.5t21.5 -10.5
t17.5 -13t7.5 -12q21 0 39.5 -9.5t32 -25.5t21.5 -35.5t8 -40.5v-8t-1 -8q-8 -43 -25.5 -76t-40 -56t-48.5 -35t-51 -12q-27 0 -55 9t-51.5 26.5t-38.5 42t-16 54.5q0 38 18.5 76t44.5 69t53 50t45 19zM593 722q32 -9 46 -22.5t14 -30.5q0 -22 -22 -52q-54 -74 -111 -151.5
t-113.5 -156t-111 -156t-104.5 -151.5q-34 10 -47.5 24t-13.5 31q0 13 6.5 27.5t16 29t21 29t21.5 28.5q11 16 42.5 59t73 99.5t87.5 119.5t86.5 119t70 98t38.5 56zM604 228q0 20 -8.5 39t-25.5 19q-13 0 -27 -14q-20 -20 -38.5 -44.5t-32.5 -50t-22 -50.5t-8 -44
q0 -18 9.5 -31.5t29.5 -13.5q21 0 42.5 19t39 47.5t29 62t12.5 61.5zM316 617q0 21 -8.5 40t-25.5 19q-13 0 -27 -14q-20 -20 -38 -44.5t-32 -50t-22.5 -50t-8.5 -43.5t9.5 -32.5t30.5 -13.5t42 19t38.5 47.5t29 61.5t12.5 61z" />
    <glyph glyph-name="ampersand" unicode="&#x26;" horiz-adv-x="919" 
d="M456 262q-39 -1 -82 -19t-79 -44t-59.5 -56.5t-23.5 -55.5q0 -13 8.5 -21t28.5 -8q16 0 40.5 6.5t58.5 21.5q31 13 71.5 40.5t79 61.5t69 71.5t39.5 71.5q1 3 1.5 5.5t0.5 5.5q-15 0 -30 -3.5t-27 -9.5t-19.5 -15t-7.5 -20q0 -9 6.5 -16t6.5 -9q0 -3 -3 -6.5t-6 -6.5
q-5 8 -12 12t-13.5 8.5t-11 12t-4.5 22.5q0 31 11 52t28.5 33.5t39.5 18t45 5.5q11 0 28 -2.5t37 -5.5t41 -5.5t40 -2.5q17 0 30 3.5t18 12.5q3 -8 5.5 -19.5t2.5 -23.5q0 -22 -11.5 -40t-43.5 -18q-16 0 -33.5 3t-37.5 8q3 -17 3 -36q0 -10 -1 -18.5t-5 -15.5
q-29 -63 -71.5 -112.5t-92.5 -83t-102.5 -51.5t-100.5 -18q-29 0 -60 7.5t-57.5 26.5t-43.5 50t-17 79q0 42 20 77t50 60.5t66 42.5t68 23q-25 20 -39 55q-20 -5 -47.5 -15t-53 -25t-43.5 -35t-18 -45q0 -4 2 -14q-42 45 -42 91q0 31 22.5 55.5t67.5 35.5q1 0 16 2.5l33 5.5
t33 7t15 7q0 42 23 85t60 78t84.5 57.5t96.5 22.5q26 -1 48 -5.5t38.5 -16.5t25.5 -32t9 -51q0 -36 -31.5 -66t-80 -54t-106.5 -43t-110 -34v-1q2 -15 11 -20t22 -5q11 0 21 2t18 2q13 0 18.5 -21t8 -46.5t4 -48.5t6.5 -27zM632 647l2 8t1 8q0 8 -5 14t-19 6q-26 0 -58 -18
t-64 -44t-60.5 -57t-46.5 -56q40 11 80.5 26t74.5 33t59 38.5t36 41.5z" />
    <glyph glyph-name="quotesingle" unicode="'" horiz-adv-x="219" 
d="M139 495q-5 -1 -8.5 -1h-8.5q-19 0 -31.5 8t-12.5 30q0 8 4 18.5t4 23.5q0 6 -4.5 10t-10.5 7t-10.5 5t-4.5 5q0 21 5.5 40t14.5 34t20.5 23.5t22.5 8.5q7 0 17 -1.5t19 -5.5t15.5 -11t6.5 -19q0 -20 -7 -40.5t-15.5 -40t-15.5 -37.5t-7 -33q0 -14 7 -24z" />
    <glyph glyph-name="parenleft" unicode="(" horiz-adv-x="482" 
d="M219 -26q12 -33 29.5 -46.5t34 -18.5t28 -8.5t11.5 -18.5q0 -5 -0.5 -8t-10.5 -3q-52 0 -89 21t-60 57t-34 84.5t-11 104.5q0 51 8 106t24 109q10 36 26 77.5t36.5 82t47 77.5t57.5 65.5t67.5 45.5t77.5 17q11 0 21 -0.5t10 -16.5q0 -11 -7 -13t-19 -4t-29 -8.5
t-36 -26.5q-27 -28 -51.5 -71t-46 -94.5t-39 -108.5t-30 -113.5t-19 -109.5t-6.5 -96q0 -52 10 -82z" />
    <glyph glyph-name="parenright" unicode=")" horiz-adv-x="436" 
d="M242 609q-12 33 -30 46t-35 18.5t-29 9t-12 18.5q0 5 1 8t10 3q52 0 89.5 -21t60.5 -57t34 -85t11 -104q0 -52 -8.5 -106.5t-23.5 -108.5q-11 -36 -26.5 -77.5t-36.5 -82t-47 -77.5t-57.5 -65.5t-67.5 -45.5t-77 -17q-11 0 -21 0.5t-10 16.5q0 11 7 13t20 3.5t29.5 8
t36.5 27.5q27 28 51.5 71t46 94.5t39 108.5t30 113.5t19 109.5t6.5 96q0 25 -2.5 45.5t-7.5 36.5z" />
    <glyph glyph-name="asterisk" unicode="*" horiz-adv-x="604" 
d="M470 591q34 -24 34 -47q0 -13 -12.5 -28.5t-29.5 -30.5t-35 -28t-29 -22q30 -2 56.5 -3t46.5 -1h14.5t11.5 1q11 -26 11 -43q0 -20 -14 -26.5t-37 -6.5q-33 0 -60 1.5t-48 2.5q16 -22 38 -50t57 -70q-17 -17 -30 -24.5t-24 -7.5q-15 0 -31 13.5t-32.5 34.5t-33 46
t-32.5 48q-13 -12 -25.5 -24.5l-28.5 -28.5t-37 -35.5t-51 -46.5q-30 26 -30 50q0 12 7.5 25t19.5 26t27.5 26t31.5 27q-24 1 -56.5 1h-78.5q-1 6 -1.5 11.5t-0.5 10.5q0 37 18.5 47.5t45.5 10.5q21 0 41.5 -1.5t49.5 -1.5q-26 35 -48.5 64.5t-35.5 43.5q13 24 24 34.5
t22 10.5t24.5 -12.5t27 -29.5t25.5 -35t20 -28q8 43 15 79t9 55q23 5 35 5q20 0 28 -9.5t8 -26.5q0 -12 -2 -26t-5 -28.5t-6 -28l-5 -22.5q36 30 66 56.5t45 41.5z" />
    <glyph glyph-name="plus" unicode="+" horiz-adv-x="586" 
d="M294 492q5 0 8.5 0.5t7.5 0.5q27 0 37 -10t10 -27q0 -6 -1 -13t-3 -15q-8 -32 -13.5 -57.5t-7.5 -43.5q29 -1 57.5 -1.5t53.5 -0.5h31.5t24.5 2q8 -24 8 -36q0 -22 -15.5 -27.5t-41.5 -5.5q-46 0 -79 0.5t-56 1.5q-5 -16 -9 -32.5t-8 -37t-9 -47.5t-11 -65
q-37 8 -49.5 23t-12.5 35q0 25 7.5 53t20.5 73q-31 0 -69 -0.5t-102 -2.5q-1 5 -1 8.5v7.5q0 37 19 47t47 10q11 0 22 -0.5t22 -0.5h18h27.5t31.5 -1q13 48 23 93.5t12 68.5z" />
    <glyph glyph-name="comma" unicode="," horiz-adv-x="247" 
d="M135 -97q-2 0 -4.5 -0.5t-4.5 -0.5q-20 0 -32.5 12t-12.5 37q0 10 4.5 22.5t4.5 26.5q0 6 -5 10t-11 6.5t-11 4.5t-5 5q0 25 7.5 44.5t18 33.5t21.5 21.5t18 7.5t17 -1.5t19 -5.5t15.5 -11t6.5 -19q0 -21 -8.5 -44t-18 -45.5t-18 -43t-8.5 -37.5q0 -15 7 -23z" />
    <glyph glyph-name="hyphen" unicode="-" horiz-adv-x="555" 
d="M476 246q7 -20 7 -33q0 -21 -15.5 -27t-38.5 -6q-47 0 -79 0.5t-57 1.5t-46 1.5t-46 0.5h-52.5t-72.5 -2v10q0 39 18.5 49t45.5 10q3 0 33 -1t73.5 -2t94 -2t95.5 -1h23t17 1z" />
    <glyph glyph-name="period" unicode="." horiz-adv-x="233" 
d="M59 32q-2 8 -2 13q0 21 10.5 42t10.5 36q0 4 -2 10q-2 3 20 3q10 0 22 -1.5t23 -6t18.5 -11.5t7.5 -19t-3.5 -25.5t-8 -25.5t-8 -22t-3.5 -16q0 -4 2 -6q-16 -4 -33 -4q-22 0 -36 8t-18 25z" />
    <glyph glyph-name="slash" unicode="/" horiz-adv-x="385" 
d="M263 718q5 0 8.5 0.5t7.5 0.5q35 0 48 -12t13 -32q0 -9 -2.5 -20t-5.5 -22q-26 -93 -51 -176.5t-49.5 -164.5t-48 -163.5t-45.5 -172.5q-43 8 -58 26t-15 41q0 21 7.5 45.5t14.5 50.5q5 20 19.5 67t33 108t39 128.5t38.5 127.5t30.5 105.5t15.5 62.5z" />
    <glyph glyph-name="zero" unicode="0" horiz-adv-x="571" 
d="M509 574q6 -20 8.5 -44.5t2.5 -50.5q0 -46 -8 -97t-22.5 -101.5t-36.5 -97.5t-49.5 -84.5t-61 -62.5t-71.5 -32q-14 -2 -26 -3.5t-24 -1.5q-49 0 -86 18.5t-61.5 51.5t-37 78t-12.5 97q0 50 11 103.5t31 105.5t48.5 98.5t64 81.5t77 55.5t87.5 20.5q26 0 51.5 -7.5
t47.5 -24t39.5 -42t27.5 -61.5zM286 649q24 -12 24 -24q0 -11 -19 -26q-18 -15 -37 -43.5t-36.5 -66t-32.5 -81t-26.5 -88t-18 -87.5t-6.5 -79q0 -59 21 -94t59 -35q29 0 57 24.5t53 65.5t46 94.5t36 110.5t23.5 114t8.5 106q0 73 -25.5 103.5t-64.5 30.5q-36 0 -62 -24v-1z
" />
    <glyph glyph-name="one" unicode="1" horiz-adv-x="316" 
d="M305 638q-8 -17 -24 -61.5t-35.5 -102.5t-40.5 -123.5t-38 -125.5t-28 -108t-11 -70q0 -12 3.5 -16t10.5 -4q9 0 17 7q2 -3 4.5 -4t2.5 -3q0 -1 -2.5 -5.5t-6.5 -10t-9 -9.5t-10 -4q-54 4 -82.5 39t-28.5 83q0 17 5 39q12 49 31 112t39.5 127.5t40.5 125t35 105.5v2
q0 1 -1 1q-2 0 -7.5 -3.5t-13 -8t-16 -8t-17.5 -3.5q-8 0 -14 3.5t-11 14.5q7 14 19.5 29t28.5 27t33 20t32 8q11 0 28 -3.5t32.5 -10t26.5 -17t11 -25.5q0 -9 -4 -17z" />
    <glyph glyph-name="two" unicode="2" horiz-adv-x="552" 
d="M47 113q35 29 79 67.5t89 81.5t87.5 88.5t76 90t53.5 85.5t20 74q0 26 -13.5 37.5t-35.5 11.5q-28 0 -63.5 -18.5t-68 -53t-55.5 -85.5t-26 -115q1 -14 6.5 -21.5t12.5 -11.5t14 -5t11 -2l-8 -22q-35 2 -59 7.5t-37 10.5q-5 2 -12.5 13t-14.5 26.5t-12 32t-5 28.5
q3 71 28 123.5t62.5 86.5t84 50.5t91.5 16.5q22 0 43 -3t41.5 -13.5t41 -29.5t41.5 -50q23 -36 23 -75q0 -37 -27 -88.5t-73.5 -110.5t-108 -121.5t-130.5 -121.5q12 2 23.5 2h22.5q37 0 67.5 -3.5t56.5 -3.5q9 0 20.5 1t22.5 4t18.5 8t7.5 13q0 4 -2 10q4 8 13 8
q12 0 14 -9l5 -24q1 -6 1 -11.5v-10.5q0 -26 -8.5 -44.5t-22 -30.5t-31 -17.5t-35.5 -5.5q-30 0 -45.5 6t-28.5 13.5t-29 14t-46 7.5q-10 0 -29 -1t-40 -4t-39 -7.5t-25 -11.5q-2 -1 -6 -1q-14 0 -26 8.5t-20.5 20t-13.5 23.5t-5 19q0 11 5 21.5t19 21.5z" />
    <glyph glyph-name="three" unicode="3" horiz-adv-x="503" 
d="M364 124q-17 -35 -41.5 -59.5t-54 -41t-60.5 -24t-61 -7.5q-26 0 -49.5 6t-41 17t-27.5 28t-10 38q0 32 24 69q5 -33 30 -46.5t59 -13.5q45 0 84.5 14t68 35.5t45 47.5t16.5 49q0 18 -13 30t-42 14q-9 -2 -17 -4t-16 -2q-9 0 -22 5.5t-25 14t-21.5 18.5t-10.5 19
q32 32 70.5 68.5t71.5 73t55.5 70.5t22.5 60q0 23 -15 33.5t-39 10.5q-36 0 -73.5 -18.5t-67.5 -49.5t-49 -72t-19 -85q0 -14 3.5 -22t8.5 -12t10.5 -5t9.5 -2l-9 -19q-35 3 -55 7.5t-32 10.5q-5 2 -11.5 12.5t-13 24.5t-11.5 30t-5 29q0 2 0.5 3.5t0.5 3.5q9 54 34.5 96.5
t61 72t77.5 44.5t84 15q31 0 63.5 -10.5t59.5 -31t44.5 -50t17.5 -67.5q0 -34 -16.5 -64t-40 -57.5t-50.5 -52.5t-48 -47q38 -17 53 -46.5t15 -64.5q0 -25 -6 -49.5t-17 -46.5z" />
    <glyph glyph-name="four" unicode="4" horiz-adv-x="573" 
d="M407 709q5 0 10 1q5 0 11.5 0.5t14.5 0.5q16 0 35 -2.5t35 -9t26.5 -19t10.5 -32.5q0 -9 -9.5 -38t-24 -72t-33 -96t-36.5 -109q9 0 15 -6t9 -14t4 -16.5t1 -13.5q0 -42 -21.5 -65t-50.5 -30q-14 -49 -22 -86.5t-8 -57.5q0 -12 3.5 -16t10.5 -4q9 0 17 7q2 -3 4.5 -4
t2.5 -3q0 -1 -2.5 -5.5t-6.5 -10t-9 -9.5t-10 -4q-54 4 -84.5 31.5t-30.5 78.5q0 24 7 51l11 43q-33 6 -67.5 11t-65.5 5q-22 0 -40 -3.5t-30 -12.5q-2 -1 -6 -1q-15 0 -27 8.5t-20.5 20t-13 23.5t-4.5 19q0 11 5 21.5t19 21.5q44 37 95 78t100.5 86t93 93.5t72.5 100.5
q4 7 7 15t3 16v3zM386 509q-42 -55 -90.5 -111t-102.5 -102h9q17 0 47.5 -2t65.5 -2q17 54 35.5 110t35.5 107z" />
    <glyph glyph-name="five" unicode="5" horiz-adv-x="518" 
d="M149 709q4 4 18 4q18 0 47 -5t62 -11t66.5 -11t59.5 -5q22 0 36.5 4.5t14.5 15.5q0 4 -2 10q4 8 13 8t13 -8.5t5.5 -18.5t1.5 -18.5v-8.5q0 -24 -8.5 -40.5t-22 -27t-31 -15t-35.5 -4.5q-40 0 -70 13.5t-60 23.5q-8 -23 -17 -48.5t-18 -49t-16 -42t-9 -25.5
q22 24 48.5 33.5t44.5 9.5q42 0 72 -14.5t49 -39t27.5 -57t8.5 -68.5q0 -49 -14 -100.5t-38 -96.5t-56.5 -77t-69.5 -42q-27 -7 -65 -7q-45 0 -80 11.5t-59 31.5t-36.5 47.5t-12.5 60.5q0 34 10 59t25.5 42t34 25.5t35.5 8.5q23 0 41 -11.5t23 -30.5q-14 -4 -24.5 -20.5
t-17.5 -37.5t-11 -43.5t-4 -38.5q0 -30 13.5 -45.5t32.5 -15.5q21 0 41 19t37.5 49.5t32.5 68.5t26 76.5t17 74t6 60.5q0 35 -13.5 51.5t-32.5 16.5q-29 0 -55 -29.5t-52 -75.5q0 -2 -7 -2q-9 0 -27 3.5t-35.5 11t-30.5 19t-13 27.5q0 5 6.5 21.5t15.5 40.5t20.5 52.5
t20.5 57.5t15.5 56.5t6.5 49.5q0 16 -4 27z" />
    <glyph glyph-name="six" unicode="6" horiz-adv-x="492" 
d="M347 628q-20 -45 -50 -100t-61 -115q29 13 59 13q37 0 64.5 -14.5t45.5 -38.5t27 -54.5t9 -63.5q0 -50 -15.5 -98t-44 -85t-68 -59.5t-86.5 -22.5q-41 0 -77 11t-62.5 32.5t-42 54t-15.5 76.5q0 56 21 120.5t50 126t59 115t48 88.5l24.5 49t11.5 43v5h7q9 0 26.5 -2
t34 -8t29 -17t12.5 -29q0 -12 -6 -27zM136 96q3 -31 15.5 -47t31.5 -16q30 0 55 26.5t43.5 65.5t29 83t10.5 80q0 37 -13.5 61.5t-45.5 24.5q-24 0 -53 -16q-31 -64 -52.5 -127t-21.5 -118v-8.5t1 -8.5z" />
    <glyph glyph-name="seven" unicode="7" horiz-adv-x="475" 
d="M161 49q0 -2 -0.5 -4t-0.5 -4q0 -15 9 -15q5 0 15 7q2 -3 4.5 -4t2.5 -3l-2.5 -5t-6.5 -10t-9 -9.5t-9 -4.5q-59 2 -82 32.5t-23 73.5q0 51 26 118.5t66.5 138t89 135.5t93.5 110q-20 -6 -40 -8.5t-41 -2.5q-36 0 -71.5 4t-65.5 4q-11 0 -23 -1t-22 -4t-16 -7.5t-6 -11.5
q0 -4 2 -10q-4 -8 -13 -8t-13.5 8.5t-6 18.5t-1 19t0.5 10q0 49 28.5 73t64.5 24q16 0 41.5 -3.5t54.5 -8t59.5 -8t57.5 -3.5q23 0 42 3.5t32 11.5h5q10 0 21.5 -6t21.5 -15.5t16.5 -22.5t6.5 -26q0 -11 -5.5 -20.5t-21.5 -26.5q-26 -27 -55.5 -68t-60 -89.5t-59 -101
t-51.5 -103.5t-37.5 -96.5t-17.5 -80.5z" />
    <glyph glyph-name="eight" unicode="8" horiz-adv-x="518" 
d="M136 4q-29 10 -50.5 28t-35.5 40.5t-21 49t-7 53.5q0 33 10 64.5t30 58t49.5 45.5t68.5 26q-32 29 -47.5 65t-15.5 73q0 39 15 76t42 65.5t65 45.5t84 17q16 0 41 -6.5t48 -21.5t40 -39t17 -58q0 -33 -8 -62t-18.5 -57.5t-21 -58t-16.5 -63.5q-20 2 -37 5t-30.5 10
t-21 18.5t-7.5 30.5t7 41q8 28 18 52.5t18.5 46.5t14.5 41.5t6 37.5q0 16 -5 26t-16 10q-19 0 -38.5 -21.5t-36 -53t-27 -66.5t-10.5 -62q0 -33 12.5 -54t31.5 -37t41 -30.5t41 -33t31.5 -45t12.5 -66.5q0 -42 -14 -78.5t-40.5 -64t-63.5 -43.5t-82 -16q-33 0 -74 11z
M225 338q-12 -3 -26.5 -28.5t-27 -61t-21 -74t-8.5 -67.5q0 -38 15 -56t35 -18q23 0 42 18.5t33 47t21.5 62.5t7.5 64q0 31 -8 50.5t-19.5 31.5t-23.5 19t-20 12z" />
    <glyph glyph-name="nine" unicode="9" horiz-adv-x="488" 
d="M100 76q17 38 43 85t56 98q-8 -2 -15.5 -3t-15.5 -1q-35 0 -62 12.5t-45 34t-27.5 50t-9.5 61.5q0 51 18.5 103.5t53 96t83 71t108.5 27.5q77 -2 118 -44.5t41 -109.5q0 -45 -18 -98.5t-45 -109t-58.5 -110t-58.5 -101.5t-45 -84t-18 -57v-4q-1 0 -2.5 -0.5t-4.5 -0.5
q-9 0 -26 2t-34.5 8t-30 17.5t-12.5 29.5q0 13 7 27zM341 546q5 15 6.5 29t1.5 26q0 29 -10.5 45t-28.5 16q-25 0 -54.5 -29.5t-55 -73t-42.5 -92.5t-17 -87q0 -28 12.5 -45t32.5 -17q17 0 36 12t39 40v-1q26 48 47.5 93.5t32.5 83.5z" />
    <glyph glyph-name="colon" unicode=":" horiz-adv-x="316" 
d="M76 32q-2 8 -2 13q0 21 10.5 42t10.5 36q0 4 -2 10q-2 3 20 3q10 0 22 -1.5t23 -6t18.5 -11.5t7.5 -19t-3.5 -25.5t-8 -25.5t-8 -22t-3.5 -16q0 -4 2 -6q-16 -4 -33 -4q-22 0 -36 8t-18 25zM134 281q-2 8 -2 13q0 21 10.5 42t10.5 36q0 4 -2 10q-2 3 20 3q10 0 22 -1.5
t23 -6t18.5 -11.5t7.5 -19t-3.5 -25.5t-8 -25.5t-8 -22t-3.5 -16q0 -4 2 -6q-16 -4 -33 -4q-22 0 -36 8t-18 25z" />
    <glyph glyph-name="semicolon" unicode=";" horiz-adv-x="347" 
d="M169 307q-2 8 -2 13q0 21 10.5 42t10.5 36q0 4 -2 10q-2 3 20 3q10 0 22 -1.5t23 -6t18.5 -11.5t7.5 -19t-3.5 -25.5t-8 -25.5t-8 -22t-3.5 -16q0 -4 2 -6q-16 -4 -33 -4q-22 0 -36 8t-18 25zM173 -97q-2 0 -4.5 -0.5t-4.5 -0.5q-20 0 -32.5 12t-12.5 37q0 10 4.5 22.5
t4.5 26.5q0 6 -5 10t-11 6.5t-11 4.5t-5 5q0 25 7.5 44.5t18 33.5t21.5 21.5t18 7.5t17 -1.5t19 -5.5t15.5 -11t6.5 -19q0 -21 -8.5 -44t-18 -45.5t-18 -43t-8.5 -37.5q0 -15 7 -23z" />
    <glyph glyph-name="less" unicode="&#x3c;" horiz-adv-x="517" 
d="M100 242q-13 13 -18 23t-5 19q0 11 6 19t13 15q39 42 83.5 86t84 79.5t70 58t42.5 22.5q14 0 30 -10.5t37 -39.5q-37 -28 -70 -56.5t-64.5 -57.5t-63 -59t-65.5 -61q29 -27 53.5 -52l49 -50t52 -52t62.5 -58q-20 -26 -35.5 -37t-29.5 -11q-16 0 -41 21.5t-56 54.5
t-65.5 72t-69.5 74z" />
    <glyph glyph-name="equal" unicode="=" horiz-adv-x="597" 
d="M528 435q7 -20 7 -33q0 -21 -15.5 -27t-38.5 -6q-47 0 -79 0.5t-57 1.5t-46 1.5t-46 0.5h-52.5t-72.5 -2v10q0 39 18.5 49t45.5 10q3 0 33 -1t73.5 -2t94 -2t95.5 -1h23t17 1zM471 191q7 -20 7 -34q0 -20 -15 -26.5t-39 -6.5q-47 0 -79 0.5t-57 1.5t-46 1.5t-46 0.5
h-52.5t-72.5 -2v10q0 20 5 32t14 18t21 8t26 2q3 0 32.5 -1t73 -2t94 -2t94.5 -1h23t17 1z" />
    <glyph glyph-name="greater" unicode="&#x3e;" horiz-adv-x="543" 
d="M442 335q13 -13 18 -23.5t5 -18.5q0 -11 -6.5 -19t-12.5 -15q-39 -43 -83.5 -87t-84.5 -79.5t-70 -58t-42 -22.5q-14 0 -30 11t-37 40q37 28 70 56.5t64.5 57.5t62.5 59t66 61q-29 27 -53.5 52l-49 50t-52 52t-62.5 58q20 26 35.5 37t29.5 11q16 0 41 -22t56 -55
t65.5 -72t69.5 -73z" />
    <glyph glyph-name="question" unicode="?" horiz-adv-x="522" 
d="M433 514q18 28 26 50.5t8 40.5q0 33 -21 49.5t-51 16.5q-45 0 -82 -23t-64.5 -60.5t-43.5 -84.5t-18 -95q1 -14 6.5 -21.5t12.5 -11.5t14 -5t11 -2l-8 -23q-35 2 -59 8t-37 11q-5 2 -12.5 12t-14.5 24t-12.5 29.5t-5.5 28.5q0 2 0.5 3.5t0.5 3.5q9 68 39 117.5t70.5 81.5
t86.5 47.5t87 15.5q43 0 77 -18.5t71 -72.5q13 -19 18.5 -37.5t5.5 -38.5q0 -30 -12 -59.5t-31 -58.5q-33 -50 -73 -94.5t-74.5 -83.5t-57.5 -72t-23 -59q-35 14 -47.5 36.5t-12.5 45.5q0 5 0.5 9.5t1.5 9.5q2 17 16 39t34.5 46.5t45.5 50.5t49 51t45 49t34 44zM149 32
q4 -17 18 -25t36 -8q17 0 33 4q-2 2 -2 6q0 6 3.5 16t8 22t8 25.5t3.5 25.5t-7.5 19t-18.5 11.5t-23 6t-22 1.5q-22 0 -20 -3q2 -6 2 -10q0 -15 -10.5 -36t-10.5 -42q0 -5 2 -13z" />
    <glyph glyph-name="at" unicode="@" horiz-adv-x="1067" 
d="M651 57q8 -23 26 -33t39 -10q40 0 71.5 23t53.5 57.5t33 74.5t11 75q0 74 -28.5 140t-77 115t-114.5 77.5t-141 28.5q-74 0 -139.5 -28.5t-114.5 -77.5t-77 -115t-28 -140q0 -78 30 -144.5t80 -115t115.5 -75.5t137.5 -27q36 0 73 7.5t74 24.5q2 -5 6 -11t4 -12
q0 -11 -19.5 -19t-45.5 -13.5t-53 -8.5t-43 -3q-78 0 -150 30t-126.5 83t-87 125.5t-32.5 158.5q0 82 31 154t85 125.5t126 84.5t154 31t154.5 -31t126.5 -84.5t85.5 -125.5t31.5 -154q0 -44 -14 -91t-41 -85.5t-66 -63.5t-88 -25q-24 0 -47 6.5t-46 17.5q-31 16 -49 37
t-27 42t-11 39t-2 29v11v1q-34 -60 -60.5 -92.5t-44.5 -32.5q-77 0 -111.5 38.5t-34.5 103.5q0 48 18 101.5t50 97.5t75 73t94 29q42 0 70.5 -15t43.5 -28q2 7 4.5 11t2.5 8q0 3 -1 4q0 2 10 2t27 -3t33.5 -9t28.5 -15.5t12 -23.5q0 -8 -4 -16q-11 -21 -28 -57t-32.5 -78
t-27 -85t-11.5 -78q0 -22 6 -40zM616 403q-17 22 -47 22q-11 0 -22.5 -3t-22.5 -11q-23 -15 -46.5 -54t-43 -85t-31.5 -92t-12 -76q0 -10 3 -19.5t14 -9.5q7 0 21 15.5t32.5 41.5t39.5 60t41.5 70.5t39.5 73t34 67.5z" />
    <glyph glyph-name="A" unicode="A" horiz-adv-x="486" 
d="M360 721q5 2 16 2.5t20 0.5q15 0 33.5 -3t34 -9t26 -16t10.5 -25q0 -9 -5 -21q-29 -60 -61 -130.5t-63 -146.5q10 2 17.5 5.5t10.5 11.5q1 -5 1.5 -9.5t0.5 -9.5q0 -27 -13 -50.5t-49 -34.5q-8 -22 -16.5 -47.5t-16 -50.5t-13.5 -48t-9 -40q-1 -6 -2 -15t0.5 -17t6 -14
t13.5 -7q8 -1 21 14.5t29 40.5t32.5 56t32.5 61t29 56.5t21 42.5q24 48 45 47q8 -1 10.5 -13.5t-6.5 -32.5q-11 -23 -26.5 -55.5t-33.5 -68.5t-37 -71t-37.5 -63.5t-34.5 -45.5t-28 -17q-46 1 -75 14t-45.5 32.5t-22 44t-3.5 48.5q2 35 12.5 69.5t22.5 69.5h-69h-31
q-44 -66 -84 -124t-79.5 -100.5t-79.5 -67.5t-85 -25q-23 0 -46 7.5t-42 21.5t-30.5 33t-9.5 43q0 11 2.5 22t5.5 24q23 -1 23 -13q0 -3 -0.5 -6.5t-0.5 -8.5q0 -17 17.5 -31t52.5 -14q27 0 57 14.5t61.5 40.5t64.5 60.5t67 75.5q4 6 1 13t-8 13.5t-10.5 11t-5.5 5.5
q0 45 37.5 67t94.5 27l238 315q5 8 9 15t4 15q0 3 -2 11zM245 367q18 37 42 84t45.5 90.5t36 76t14.5 39.5q0 2 -1 2q-54 -69 -107.5 -145t-105.5 -148q20 1 39 1h37z" />
    <glyph glyph-name="B" unicode="B" horiz-adv-x="642" 
d="M446 315q31 -20 52.5 -52.5t21.5 -86.5q0 -57 -31 -100.5t-78.5 -73t-104.5 -44.5t-108 -15q-64 0 -105.5 21t-41.5 66q0 15 5 33t16 40q5 -23 40 -34.5t83 -11.5q37 0 86 8.5t93.5 25.5t75.5 41t31 56q0 22 -20 37t-47.5 25.5t-56 17t-46.5 9.5q-17 -47 -29 -87t-12 -61
q0 -19 15 -19q8 0 17 6q4 -4 4 -9q0 -6 -6 -10.5t-13 -7.5t-13 -4.5l-6 -1.5q-52 14 -71 38.5t-19 56.5q0 26 8 55.5t18 62.5l-25 74h6q8 0 19 1.5t25 3.5q12 36 25.5 73t25.5 69t20 56.5t9 34.5q0 2 10 2t27.5 -2.5t34 -8.5t28.5 -15.5t12 -22.5l-6 -14.5t-16.5 -38
t-23.5 -54.5t-27 -65q32 11 71 29.5t71 42.5q40 29 58 57t18 51q0 35 -35.5 57.5t-92.5 22.5q-39 0 -82.5 -11.5t-88.5 -31t-88.5 -46.5t-80.5 -58t-65.5 -65t-44.5 -67q-12 -26 -12 -40q0 -15 9.5 -21.5t25.5 -8.5l-4 -11q-5 0 -13 -1t-16 -1t-21 5.5t-25.5 16.5t-22 27.5
t-9.5 38.5q0 34 20.5 72.5t55.5 76.5t81.5 73.5t99 62t108 42.5t107.5 16q49 0 93.5 -11.5t77.5 -35.5t52.5 -60t19.5 -84q0 -36 -14.5 -69.5t-38.5 -62t-54.5 -49.5t-61.5 -31z" />
    <glyph glyph-name="C" unicode="C" horiz-adv-x="483" 
d="M512 319q-10 -21 -25.5 -57.5t-36 -77.5t-45 -82.5t-51.5 -72.5q-32 -37 -71 -54t-78.5 -15.5t-76.5 19t-65.5 49t-46 76t-17.5 98.5q0 61 16.5 127.5t44 129t63 116t73.5 88.5q32 29 70.5 44.5t76.5 15.5q25 0 47 -7.5t39.5 -23t28 -40t12.5 -57.5q0 -35 -13 -71
t-31 -73.5l-36 -75t-28 -74.5q-47 10 -65.5 27.5t-18.5 43.5q0 19 8.5 43t22 52.5t29 61t30.5 69.5q10 26 10 46q0 32 -25 32q-20 0 -45 -25.5t-51 -68t-51 -97.5t-44.5 -113t-31.5 -115.5t-12 -104.5q0 -54 21.5 -87.5t54 -44t69.5 3.5t68 56q20 28 40 62t37 67t31.5 62
l23.5 47q3 5 7 13.5t10 16t13 13t15 4.5q11 -2 11 -18q0 -4 -2 -13t-5 -15z" />
    <glyph glyph-name="D" unicode="D" horiz-adv-x="619" 
d="M214 152q2 -3 4 -4t2 -3q0 -1 -5.5 -4.5t-14 -8t-18 -8t-17.5 -3.5q-3 0 -4 1q-17 7 -31.5 15.5t-25 19t-17 25.5t-6.5 36q0 29 13.5 75t32.5 97t40.5 100.5t38.5 87.5q7 15 9.5 25.5t-3.5 16.5q-25 -9 -58 -26t-67.5 -40.5t-68 -52.5t-58.5 -62q-6 -7 -13.5 -18
t-14 -23.5t-11.5 -25.5t-5 -24t6 -19t20 -11l-5 -11q-21 0 -40 8.5t-32.5 21.5t-21.5 29.5t-8 33.5q0 23 8 44.5t21 41.5q31 49 80 91.5t106.5 74t121 49.5t123.5 18q63 0 112.5 -20.5t83.5 -55.5t51.5 -83t17.5 -103q0 -51 -15 -106.5t-42 -109t-64.5 -102t-83.5 -85
t-98.5 -58t-108.5 -21.5q-32 0 -62 8t-53.5 23t-38 37t-14.5 49q0 11 4 19l25 51l16 -13q-9 -18 -9 -32q0 -25 20.5 -39.5t55.5 -14.5q47 0 95.5 21.5t93.5 57t84.5 82t69 96.5t46.5 100.5t17 94.5q0 35 -11 60.5t-31 42.5t-47.5 25t-59.5 8q-46 0 -102 -17q11 -3 26 -7
t27.5 -10t21 -15t6.5 -22q0 -3 -8.5 -24.5t-22 -54t-29 -73.5t-31 -82.5t-29 -80t-20.5 -67.5q-2 -6 -3 -13.5t-1 -15.5q0 -9 3 -16t11 -7q5 0 16 6z" />
    <glyph glyph-name="E" unicode="E" horiz-adv-x="480" 
d="M395 617q4 15 4 28q0 17 -7.5 24.5t-18.5 7.5q-20 0 -48.5 -27t-54 -67t-43.5 -86t-18 -84q0 -24 11.5 -40t39.5 -18q8 -2 19.5 -3.5t11.5 -11.5q0 -5 -2 -11t-4 -11q-5 1 -15 1q-31 0 -59 -21t-49.5 -53.5t-34 -71t-12.5 -73.5q0 -39 20.5 -69t64.5 -30t81.5 32
t69.5 79.5t59 103t51 102.5l6 12t9.5 16t13 13.5t16.5 5.5q2 0 6.5 -3.5t4.5 -11.5q0 -3 -1 -11t-6 -20q-14 -32 -30.5 -71t-37.5 -79.5t-46 -78.5t-55.5 -67.5t-66.5 -47.5t-79 -18q-50 0 -87.5 17.5t-62.5 44.5t-37 60.5t-12 66.5q0 34 11.5 67t35 60.5t58 47.5t80.5 27
q-35 21 -50.5 54.5t-15.5 71.5q0 48 19 93t50.5 79.5t73.5 55.5t88 21q28 0 53.5 -8.5t44.5 -25t30 -41.5t11 -58q0 -27 -8 -52.5t-19 -48.5t-23 -45t-20 -42q-49 4 -67.5 17.5t-18.5 33.5q0 16 8 35t19 40t22 43.5t17 45.5z" />
    <glyph glyph-name="F" unicode="F" horiz-adv-x="611" 
d="M260 193q-15 -14 -15 -33q0 -8 3 -14.5t7 -11.5t10 -9q0 -13 -7 -13q-2 0 -9 3t-14.5 7t-14 8.5t-7.5 7.5q-9 27 -9 48q0 28 13.5 46t33 28.5t42.5 14t43 3.5q27 59 58 115t57 102.5t43.5 82t17.5 54.5q0 23 -16 33.5t-42 10.5q-35 0 -82.5 -14.5t-98.5 -38t-100 -53.5
t-88 -62t-63 -62.5t-24 -54.5q0 -17 12.5 -25t29.5 -10l-4 -11q-5 0 -15 -1t-21 -1t-25 6t-26 17.5t-20.5 29.5t-8.5 42q0 37 21 72.5t56 67t82 57.5t99.5 44.5t107 29t104.5 10.5q94 0 147.5 -33t53.5 -89q0 -11 -0.5 -17.5t-4 -16.5t-11.5 -27.5t-22.5 -49t-37.5 -82
t-57 -125.5q32 0 55.5 2t28.5 12v-5q0 -36 -20 -58.5t-74 -22.5h-22q-15 -36 -28 -69.5t-23 -62.5t-15.5 -52.5t-5.5 -38.5q0 -21 13 -21q6 0 17 6q3 -6 3 -10q0 -5 -4.5 -9.5t-10 -8.5t-10.5 -6.5t-7 -2.5q-51 3 -72 30t-21 72q0 35 11 78t30 91q-11 0 -22.5 -1t-20.5 -9z
" />
    <glyph glyph-name="G" unicode="G" horiz-adv-x="555" 
d="M262 55q-24 -29 -45 -42t-46 -13q-44 0 -76 14.5t-53 41t-31.5 62.5t-10.5 79q0 47 11 104t32 115.5t51 113t67 97t80.5 68t92.5 25.5q27 0 51.5 -8t43 -25t30 -42.5t11.5 -60.5q0 -30 -10.5 -57t-24 -54t-27 -54.5t-19.5 -56.5q-51 7 -70.5 22t-19.5 38q0 15 7 33.5
t17 40.5t22 47t23 53q10 26 10 46q0 33 -25 33t-56 -37q-36 -42 -69.5 -104t-59.5 -131.5t-42 -140t-16 -128.5q0 -14 2 -30t7.5 -29.5t15.5 -22t26 -8.5q27 0 52.5 22.5t48 55.5t40.5 71t32 69q3 7 8.5 26t3.5 31q0 1 4.5 1h6.5q8 0 24.5 -3.5t33.5 -11t30 -18.5t13 -27
q0 -7 -8.5 -28.5t-20.5 -52t-27 -65.5t-27 -69.5t-20.5 -64.5t-8.5 -49q0 -27 18 -27q7 0 16 6q2 -2 4.5 -3t2.5 -3q0 2 -2 -2.5t-5.5 -10.5t-8.5 -11t-11 -5q-26 0 -46.5 10.5t-34.5 26t-22 34.5t-8 36q0 15 3.5 33.5t9.5 39.5z" />
    <glyph glyph-name="H" unicode="H" horiz-adv-x="785" 
d="M413 362q37 1 74.5 1h71.5q19 59 40 117.5t37.5 107t27.5 82t11 42.5q0 8 -2 11q2 2 14 2t29 -3t33.5 -9.5t28 -18t11.5 -27.5l-8 -22t-22.5 -61.5t-34.5 -94.5t-43 -122q17 2 30 6t19 13q1 -5 1.5 -9.5t0.5 -9.5q0 -27 -16.5 -51t-63.5 -34q-15 -44 -28.5 -86.5
t-23.5 -80t-16 -66.5t-6 -44q0 -11 3 -14.5t11 -3.5q10 0 17 7q2 -3 4.5 -3.5t2.5 -2.5q0 1 -2 -3.5t-5.5 -10.5t-8.5 -11t-10 -5q-30 0 -49.5 10.5t-31 27t-16 36.5t-4.5 40q0 34 8 70.5t16 65.5l18 65q-38 -1 -77 -0.5t-74 -0.5q-15 -44 -29.5 -85.5t-25 -77t-17 -61.5
t-6.5 -39q0 -4 1 -6q-58 0 -78.5 20t-20.5 53q0 30 11 65t21 68q-16 20 -19.5 32.5t-3.5 27.5q0 31 19 55t53 30q4 0 6 1q24 64 49.5 128t43.5 125q3 9 4 17t1 15q0 26 -20 26q-17 0 -43.5 -17t-57 -45.5t-61.5 -65t-56 -75.5t-40.5 -77t-15.5 -69q0 -21 6.5 -34t15.5 -20.5
t19.5 -10.5t19.5 -4l-2 -13q-3 -1 -11 -1q-10 0 -23 1.5t-25 4t-21 5t-11 5.5q-23 25 -42 51t-19 64q0 37 15 77.5t40 79t58.5 73t70.5 60.5t76 41.5t75 15.5q14 0 40 -5t52 -17t45.5 -32.5t19.5 -51.5q-1 -9 -2 -19.5t-6 -22.5z" />
    <glyph glyph-name="I" unicode="I" horiz-adv-x="444" 
d="M329 716q61 -16 89.5 -40t28.5 -65q0 -14 -3 -31t-11 -37q-11 -29 -29.5 -75t-40 -100.5t-44 -111.5t-41 -107.5t-30 -89.5t-11.5 -56q0 -9 4 -11.5t10 -2.5q9 0 18 6q2 -2 4.5 -3t2.5 -3q0 -3 -2.5 -8t-6.5 -10t-9 -8.5t-9 -3.5q-27 0 -46 9t-30.5 24.5t-17 36
t-5.5 42.5q0 44 14.5 98.5t36.5 112.5t48 115.5t48 108t36.5 90t14.5 60.5q0 23 -16 23q-14 0 -37.5 -17.5t-51 -47t-55 -67t-50 -77.5t-37 -79.5t-14.5 -71.5q0 -22 6 -35.5t15.5 -21.5t20.5 -11.5t21 -5.5l-3 -12q-3 -1 -11 -1q-10 0 -23 1.5t-25 3.5t-21 5t-11 5l-22 26
t-20 27t-14.5 30.5t-5.5 37.5q0 38 12.5 78.5t34.5 79.5t51.5 74.5t63 62t69.5 42t71 15.5q18 0 33 -4z" />
    <glyph glyph-name="J" unicode="J" horiz-adv-x="642" 
d="M52 253q-24 26 -40.5 55.5t-16.5 66.5q0 59 37.5 120t96.5 111t130.5 81.5t140.5 31.5q51 0 85 -16.5t54 -44t28.5 -62t8.5 -70.5q0 -34 -5.5 -70t-14 -70.5t-18.5 -66.5t-19 -58q24 -21 24 -52q0 -12 -3.5 -24t-8.5 -23q-9 23 -34 36q-19 -49 -46.5 -108t-62.5 -110.5
t-78 -86t-92 -34.5q-41 0 -69.5 26.5t-28.5 77.5q0 54 25.5 108.5t67 100t94 76.5t105.5 37q7 20 19 55.5t23.5 78t20 86.5t8.5 80q0 40 -13 65t-45 25q-17 0 -37 -7q-23 -8 -53.5 -27.5t-64 -47t-66 -61.5t-58 -71t-41.5 -75t-16 -74q0 -38 17 -54t38 -21l-2 -12
q-1 0 -2 -0.5t-3 -0.5q-9 0 -22.5 3.5t-27 8.5t-23.5 9.5t-12 7.5zM381 202q-60 -15 -102.5 -44t-69 -62.5t-38.5 -68.5t-12 -63q0 -26 9 -41.5t26 -15.5q22 0 47 29t50 72.5t48.5 95.5t41.5 98z" />
    <glyph glyph-name="K" unicode="K" horiz-adv-x="742" 
d="M462 310q-3 23 -5 42t-13 21q7 9 20 18.5t27 17t27.5 12t21.5 4.5q2 0 3 -0.5t2 -0.5q24 37 46.5 75t39.5 73t27.5 65.5t10.5 51.5q0 25 -9 34q5 1 10.5 1.5t10.5 0.5q15 0 29 -3.5t25 -11t18 -18t7 -23.5q0 -12 -15.5 -40t-42 -68t-62.5 -90t-77 -106q14 -103 33 -191
t44 -155q6 -17 16 -34t22.5 -30.5t28.5 -22t35 -8.5q29 0 62 23q4 -8 4 -11q0 -7 -10.5 -16t-28 -16.5t-39 -13t-43.5 -5.5q-21 0 -39 2.5t-27 7.5q-35 17 -59.5 54t-42.5 84.5t-29.5 101.5t-18.5 105q-38 -52 -72 -102.5t-67 -103.5l-18 -33h-7q-28 0 -47.5 9t-31.5 23
t-17.5 32.5t-5.5 36.5q0 20 4 39t9 37q15 51 33 99.5t37 95.5l38 94t37 97q11 30 16.5 53t5.5 37q0 23 -16 23t-43 -17t-57.5 -45.5t-62 -65t-57 -76t-41.5 -78t-16 -70.5q0 -22 7 -35.5t17 -21.5t22 -11.5t23 -4.5l-2 -13q-3 -1 -10 -1q-10 0 -24.5 2t-28 4.5t-23.5 5.5
t-12 6q-24 26 -43 52.5t-19 65.5q0 37 13.5 77t37 78.5t55 73t68 60.5t75.5 41.5t78 15.5q12 0 39 -4.5t55 -16t49 -32t23 -53.5q0 -15 -10.5 -48t-26.5 -76.5t-35.5 -94t-38 -100t-33 -95.5t-21.5 -80l51 67q21 31 43 62.5t41 60.5z" />
    <glyph glyph-name="L" unicode="L" horiz-adv-x="505" 
d="M301 22q9 -1 31.5 -7t53.5 -13.5t67.5 -16t73 -16t71 -12t60.5 -4.5t37.5 4.5t16 10.5t6 10.5t8.5 4.5q5 0 8.5 -3.5t5.5 -15.5q-2 -46 -29.5 -74t-94.5 -28q-29 0 -66 6t-83.5 19t-95 26.5t-94.5 24t-82 10.5q-30 0 -50.5 -9t-27.5 -31q-9 2 -14.5 11.5t-5.5 23.5
q0 22 18.5 45.5t67.5 37.5q13 35 31.5 85t38.5 107t41.5 116t39.5 112t32.5 95.5t21.5 65.5q7 24 7 41q0 25 -19 25q-16 0 -43.5 -18.5t-58.5 -49.5t-63 -70t-57.5 -80.5t-42 -81.5t-16.5 -72q0 -21 6.5 -34t15.5 -20.5t19.5 -10.5t19.5 -4l-2 -12q-3 -1 -11 -1
q-10 0 -23 1.5t-25 3.5t-21 5t-11 5q-23 26 -42 51.5t-19 63.5t15 79.5t41 81.5t60 76.5t72 64t77 43.5t75 16q15 0 41 -5t51.5 -17t44.5 -32.5t19 -50.5q0 -16 -8 -42q-7 -19 -20 -57.5t-30.5 -87.5t-37 -105t-38 -110t-35.5 -101.5t-28 -79.5z" />
    <glyph glyph-name="M" unicode="M" horiz-adv-x="737" 
d="M556 47q8 0 24 21.5t37.5 58t47.5 86t53 105.5q11 23 22.5 36t22.5 11q10 -2 11 -14.5t-7 -31.5q-25 -54 -53 -110.5t-55 -103t-50 -77t-38 -30.5q-62 3 -95 25.5t-44 58t-4 79t24 88.5q28 75 56.5 137t57.5 122q3 6 2.5 8t-5.5 -6q-6 -12 -26.5 -53.5t-48 -96.5
t-58.5 -115.5t-59 -110.5t-48.5 -82.5t-27.5 -30.5q-30 7 -49.5 14.5t-31.5 19t-16.5 28.5t-4.5 43q1 27 4 68.5t8 88.5t13 96.5t18 92.5q-33 -79 -66.5 -153.5t-65.5 -140.5q-17 -34 -38 -72.5t-48.5 -71.5t-62 -54.5t-79.5 -21.5q-54 0 -91 29t-37 78q0 10 4.5 21t6.5 22
q11 0 19 -2.5t8 -7.5q0 -4 -1 -8t-1 -8q0 -10 8.5 -17.5t20 -12.5t24 -7.5t20.5 -2.5q21 0 40.5 3t39 13.5t41 29.5t45.5 52q19 26 40.5 63t42 78.5t39.5 84t35 80.5t27 68t16 46q5 15 8 31t3 30q0 12 1 22t-7 16q3 3 18 7t35 4q14 0 28.5 -3t26.5 -10t20 -19.5t8 -31.5
q0 -11 -4.5 -43.5t-11 -77t-14 -95t-14 -98.5t-11 -88t-4.5 -62q0 -13 0.5 -17.5t5.5 3.5q9 14 30.5 50.5t48.5 86t57 107t57 113.5t48.5 105t31.5 82q5 16 7 28t-7 17q2 3 17 5t29 2q18 0 39 -3t39 -9.5t30 -17.5t12 -26q0 -7 -5 -19q-20 -41 -41.5 -89t-43.5 -98.5
t-42 -102t-37 -99.5q-8 -23 -16.5 -49t-15.5 -51.5t-11.5 -48t-3.5 -37.5q1 -13 6 -21t16 -6z" />
    <glyph glyph-name="N" unicode="N" horiz-adv-x="790" 
d="M335 133l251 529q3 8 7 17q3 8 5.5 16.5t2.5 17.5q-1 0 4.5 0.5t14.5 0.5q17 0 43 -3t51 -13.5t42.5 -29.5t17.5 -51q0 -17 -6 -38q-7 -22 -21.5 -61t-33 -87t-38 -102.5t-35 -107.5t-26 -100.5t-10.5 -81.5q0 -14 2 -28.5t7 -26t14.5 -18.5t23.5 -7q11 0 26 5q7 2 15 5
q-1 -9 -3 -17t-8.5 -13.5t-18 -8.5t-32.5 -3q-63 0 -100 41t-37 122q0 47 11.5 100.5t28.5 108t37.5 106t37.5 95.5t28.5 77t11.5 49q0 13 -6 13q-5 0 -11.5 -8t-17.5 -28q-8 -14 -28.5 -55.5t-47.5 -98.5t-57.5 -123t-58.5 -129t-50 -117t-32 -86h-14q-119 0 -119 97
q0 25 16.5 80t41 127t53.5 153t54 157q11 34 10 48q0 23 -17 23q-18 0 -44.5 -18.5t-56.5 -49.5t-59.5 -71t-53.5 -82.5t-39 -85t-15 -78.5q0 -18 5.5 -33.5t14.5 -27t19.5 -18.5t20.5 -8l-2 -12q-2 0 -2.5 -0.5t-2.5 -0.5q-9 0 -22.5 3.5t-26.5 8t-23 9t-12 7.5
q-25 26 -43.5 53t-18.5 68q0 39 13 82t36 85.5t54 81t66.5 67.5t74.5 46.5t77 17.5q13 0 39.5 -5t53.5 -17t47 -33t20 -52q0 -20 -7 -41q-5 -15 -17.5 -50t-29 -81t-34 -96t-32 -94t-24 -76.5t-9.5 -42.5q0 -3 2 -3q1 0 2 1z" />
    <glyph glyph-name="O" unicode="O" horiz-adv-x="672" 
d="M389 38q-32 -27 -66.5 -40.5t-66.5 -13.5q-57 0 -99.5 40t-48.5 119q-52 31 -79.5 84t-27.5 116q0 75 31 143.5t81 121t113.5 84t129.5 31.5q48 0 90.5 -15t74.5 -46t51 -77t19 -109q0 -60 -16.5 -123t-44.5 -122t-64.5 -109t-76.5 -84zM220 122q-3 -17 -3 -30
q0 -31 13.5 -47.5t33.5 -16.5q28 0 57 25t56 66t50 93.5t40 107.5t27 109t10 97q0 78 -31 114.5t-79 36.5q-38 0 -74 -19.5t-67.5 -52t-58.5 -74.5t-46 -86t-29.5 -86.5t-10.5 -76.5q0 -28 7 -48q10 47 26 88.5t31.5 75t26.5 56.5t11 34v4q2 2 8 2q10 0 28.5 -4t36.5 -12
t31 -20t13 -28q0 -11 -5 -20q-4 -8 -16 -33t-26.5 -59t-28.5 -74t-23 -77q19 7 33 20t19 30q4 -2 8 -11t4 -21t-6.5 -22.5t-17 -19t-23 -14t-25.5 -7.5z" />
    <glyph glyph-name="P" unicode="P" horiz-adv-x="733" 
d="M363 -9q2 -2 4.5 -3t2.5 -3q0 1 -2 -3t-6 -9.5t-8.5 -10.5t-10.5 -5h-2q-28 4 -46.5 15.5t-29.5 28t-15.5 37.5t-4.5 44q0 45 11.5 91.5t22.5 82.5l-8 94q18 -6 36 -9q16 46 34 92.5t33.5 85t26 65t10.5 32.5q0 5 -3 8q-52 -14 -101 -36t-91 -50.5t-75 -64t-52 -75.5
q-11 -22 -11 -38q0 -17 11.5 -24t29.5 -9l-4 -11q-7 -1 -15.5 -2.5t-17.5 -1.5q-4 0 -7 0.5t-7 1.5q-6 1 -16 10t-20.5 20.5t-18.5 23t-10 18.5q-3 10 -3 22q0 24 11.5 50t29.5 51t40 47.5t43 39.5q35 28 76.5 51.5t87 40t92.5 25.5t92 9q51 0 94.5 -14.5t75.5 -41t50 -64.5
t18 -86q0 -65 -32 -119t-80.5 -92t-105.5 -59t-107 -21q-12 -32 -22 -64.5t-17 -61t-11 -52t-4 -38.5q0 -14 3.5 -19t12.5 -5q8 0 16 6zM428 341q49 9 91 32.5t72 54t47 64.5t17 64q0 38 -29.5 63t-95.5 25q-50 0 -104 -15q10 -1 26 -5t31.5 -11.5t27 -18.5t11.5 -26
q0 -1 -7.5 -19t-20.5 -49t-30 -72t-36 -87z" />
    <glyph glyph-name="Q" unicode="Q" horiz-adv-x="667" 
d="M405 52q12 -2 23.5 -13t11.5 -27q0 -12 -7.5 -24.5t-26.5 -25.5q32 7 76 12.5t90 5.5q39 0 76.5 -5.5t67.5 -20t48 -39t18 -63.5q0 -3 -1.5 -15.5t-4.5 -26t-9 -24.5t-15 -11q-8 0 -8 7q0 4 0.5 7t0.5 6q0 18 -15 32t-36.5 23.5t-45.5 15.5t-41 9q-40 7 -78 9.5t-76 2.5
q-59 0 -114.5 -5t-106 -11.5t-95.5 -11.5t-82 -5q-32 0 -52 4.5t-31.5 12t-16 18t-4.5 23.5q0 11 2 20.5t2 12.5v1q21 -14 51 -18.5t68 -4.5t91.5 8.5t102.5 23.5t84 36t37 47q-32 -27 -66.5 -40.5t-66.5 -13.5q-57 0 -99.5 40t-48.5 119q-52 31 -79.5 84t-27.5 116
q0 75 31 143.5t81 121t113.5 84t129.5 31.5q48 0 90.5 -15t74.5 -45.5t51 -77t19 -108.5q0 -57 -15 -117t-40.5 -116.5t-59.5 -106t-71 -85.5zM220 122q-3 -17 -3 -30q0 -31 13.5 -47.5t33.5 -16.5q28 0 57 25t56 66t50 93.5t40 107.5t27 109t10 97q0 78 -31 114.5t-79 36.5
q-38 0 -74 -19.5t-67.5 -52t-58.5 -74.5t-46 -86t-29.5 -86.5t-10.5 -76.5q0 -28 7 -48q10 47 26 88.5t31.5 75t26.5 56.5t11 34v4q2 2 8 2q10 0 28.5 -4t36.5 -12t31 -20t13 -28q0 -11 -5 -20q-4 -8 -16 -33t-26.5 -59t-28.5 -74t-23 -77q19 7 33 20t19 30q4 -2 8 -11
t4 -21t-6.5 -22.5t-17 -19t-23 -14t-25.5 -7.5z" />
    <glyph glyph-name="R" unicode="R" horiz-adv-x="732" 
d="M364 -11q2 -2 4.5 -3.5t2.5 -3.5q0 1 -2.5 -3.5t-6.5 -9.5t-9 -9.5t-10 -4.5q-33 3 -53 14t-30 27.5t-13 37t-3 41.5q0 26 5 54.5t12.5 56t15.5 53t14 44.5l-8 94q18 -6 36 -9q25 72 48 129.5t39 92.5q3 9 3 15q0 14 -8 14q-52 -14 -100 -36.5t-89 -51t-73 -62.5t-51 -71
q-11 -21 -11 -36q0 -17 13 -25t31 -10l-4 -11q-7 -1 -15.5 -2.5t-17.5 -1.5q-4 0 -7 0.5t-7 1.5q-6 1 -16 10t-20.5 20.5t-19 23t-10.5 18.5q-3 10 -3 21q0 24 11.5 50t29.5 51.5t40 48t43 39.5q35 28 77 51.5t87.5 40t92 25.5t91.5 9q51 0 94.5 -14.5t75.5 -41t50 -64
t18 -84.5q0 -49 -20.5 -91t-53.5 -75t-75.5 -56t-86.5 -34q34 -58 67 -112t65.5 -97t63.5 -72.5t60 -38.5q10 -3 23 -3.5t27 4t28 15t25 29.5q4 -7 4 -18t-2 -19q-2 -11 -21.5 -25.5t-44.5 -28t-48.5 -22.5t-33.5 -10q-49 -4 -88.5 25t-75.5 79.5t-70.5 115t-72.5 132.5
q-11 -30 -19.5 -61t-15.5 -59.5t-10.5 -51.5t-3.5 -38q0 -14 3.5 -18.5t12.5 -4.5q8 0 16 6zM441 368q48 9 88.5 29.5t69.5 47.5t45 57.5t16 57.5q0 35 -30 59.5t-98 24.5q-50 0 -104 -15q10 -1 26 -5t31.5 -11.5t26.5 -18.5t11 -26q0 -8 -23 -60t-59 -140z" />
    <glyph glyph-name="S" unicode="S" horiz-adv-x="394" 
d="M242 91q-11 -32 -33.5 -56t-51 -40t-61 -24.5t-63.5 -8.5q-62 0 -85.5 25t-23.5 66q0 28 7 53q7 -14 28 -20t50 -6q31 0 61 6.5t54 18t38.5 27t14.5 32.5q0 16 -13 30t-33 29t-43 33t-43 41.5t-33 53.5t-13 70q0 53 22 106.5t58 97t82.5 71t95.5 27.5q15 0 38.5 -7.5
t45 -22.5t37 -38.5t15.5 -54.5q0 -5 -0.5 -11t-1.5 -11q-6 -32 -17.5 -61.5t-24.5 -59t-26 -60t-21 -63.5q-18 3 -35 7t-29.5 11t-20 18t-7.5 28q0 9 2.5 21t8.5 26q12 30 26.5 59t26.5 55.5t20.5 49.5t8.5 40q0 21 -17 21q-16 0 -32 -18q-23 -24 -45.5 -55t-40.5 -65.5
t-29 -72t-11 -73.5q0 -47 19 -79.5t42 -59.5t42 -53t19 -60q0 -10 -1.5 -20.5t-6.5 -22.5z" />
    <glyph glyph-name="T" unicode="T" horiz-adv-x="664" 
d="M664 550q-1 -2 -19 -37t-44.5 -89t-57.5 -119.5t-57.5 -128t-44 -114t-17.5 -77.5q0 -21 13 -21q6 0 18 6q2 -4 2 -11v-4q-2 -2 -11.5 -12.5t-26.5 -10.5q-24 0 -41.5 11t-28 28t-15.5 37.5t-5 39.5q0 38 12.5 84t33 94.5t46 97.5t51 93.5t49 83t39.5 66.5q25 43 25 69
q0 23 -16 32.5t-43 9.5q-29 0 -67.5 -10.5t-81.5 -28t-87 -42t-83 -52t-70 -57.5t-48 -60q-11 -19 -11 -34q0 -17 13 -25.5t31 -10.5l-5 -11q-5 -1 -14.5 -2t-19.5 -1q-9 0 -23.5 5.5t-28 17t-23 29.5t-9.5 44q0 38 21 73.5t56.5 67t83 57.5t100 44.5t107.5 29t105 10.5
q40 0 77 -7.5t65 -23t45 -38t17 -52.5q0 -24 -12 -51z" />
    <glyph glyph-name="U" unicode="U" horiz-adv-x="802" 
d="M580 6q-48 9 -68.5 39.5t-20.5 77.5q0 33 9 72q-21 -39 -40 -72.5t-36 -58t-30.5 -39t-22.5 -14.5q-41 0 -70.5 11t-48.5 30t-28 44.5t-9 55.5q0 23 4 43q11 57 29.5 108.5t39 101l41 99t37.5 102.5q10 31 10 52q0 26 -18 26t-44.5 -18t-55.5 -48t-58 -68t-51.5 -78.5
t-37 -79.5t-14.5 -70q0 -21 6 -33.5t15 -19.5t19.5 -10t18.5 -4l-2 -12q-3 -1 -12 -1q-10 0 -22.5 1.5t-24 3.5t-20 4.5t-10.5 4.5q-12 13 -23.5 25.5t-20 26.5t-13.5 30.5t-5 36.5q0 55 28 116.5t73 113t102 85t115 33.5q9 0 18.5 -1t18.5 -3q64 -15 92 -41t28 -63
q0 -12 -2.5 -24.5t-7.5 -26.5q-18 -53 -44 -116t-50.5 -126t-41.5 -121t-17 -101t24 -43q22 0 50 40q43 60 80.5 130t70.5 145.5t63 154t60 155.5q5 15 5 24q0 10 -6 16q4 2 14 2q12 0 30 -3.5t35.5 -10.5t29.5 -18t12 -26q0 -9 -4 -17q-9 -19 -26 -65t-37 -104.5
t-41 -123.5t-38 -122.5t-28 -100t-11 -57.5q0 -29 14 -29q10 0 24.5 15.5t31 40.5t33.5 55.5t32.5 60.5t28.5 56.5t21 42.5q3 6 7.5 14.5t10.5 16.5t13 12.5t15 3.5q6 -1 8 -6.5t1.5 -13t-2.5 -15t-4 -11.5q-7 -15 -20.5 -44.5t-31 -65t-37 -72.5t-39.5 -67.5t-38.5 -50.5
t-32.5 -21q-8 0 -23 2t-30 6z" />
    <glyph glyph-name="V" unicode="V" horiz-adv-x="684" 
d="M302 72v-8q0 -36 19 -36t47 33.5t59.5 87.5t64 121.5t60.5 135t48.5 128t28.5 100.5q5 23 6.5 42t-5.5 45q6 1 12 1h12q35 0 55.5 -12.5t20.5 -41.5v-10q-2 -12 -15.5 -47.5t-36 -84.5t-51.5 -107.5t-60.5 -117.5t-63 -115t-59.5 -99t-50 -69t-35 -27q-41 0 -70 11
t-48.5 29.5t-28.5 44t-9 55.5q0 19 5 44q11 54 30.5 109t42 111.5t45.5 112.5t42 112q10 27 10 43t-14 16q-20 0 -48.5 -17t-59 -45.5t-61 -65.5t-54 -77t-38.5 -80t-15 -74q0 -21 6 -34t15 -20t19 -10t19 -4l-3 -12q-3 -1 -11 -1q-9 0 -21 1.5t-23.5 3.5t-19.5 5t-10 5
q-11 13 -22 25.5t-19.5 26t-14 29.5t-5.5 36q0 55 28 116.5t73.5 113.5t103 86t115.5 34q9 0 19 -1t19 -3q60 -16 92 -34.5t32 -54.5q0 -19 -9 -44q-20 -56 -47.5 -124.5t-53.5 -138t-45.5 -135t-22.5 -114.5z" />
    <glyph glyph-name="W" unicode="W" horiz-adv-x="965" 
d="M313 81v-7q0 -33 20 -33q18 0 43.5 31.5t54.5 83t59 116.5t57.5 132t50 129.5t36.5 109.5q5 13 4 32t-10 26q8 1 15 1h14q51 0 73.5 -18t22.5 -44q0 -12 -3 -22q-15 -60 -41.5 -132t-53.5 -145t-48.5 -142t-27.5 -123q0 -2 -0.5 -4.5t-0.5 -4.5q0 -31 22 -31
q20 0 48.5 33.5t59.5 87.5t62.5 120.5t58.5 133.5t46.5 126.5t27.5 98.5q5 21 6.5 42.5t-6.5 44.5q6 1 12.5 1h11.5q35 0 56 -12t21 -41q0 -3 -0.5 -5.5t-0.5 -5.5q-2 -12 -15.5 -47t-35.5 -84t-50 -107.5t-59 -117.5t-62 -114t-58.5 -98t-49.5 -69t-35 -27q-83 8 -124.5 44
t-41.5 94q-35 -60 -62 -97.5t-41 -38.5q-40 3 -69 14.5t-48 30.5t-28 44t-9 54q0 19 5 44q24 110 63 216t84 217q10 24 10 39q0 21 -19 21q-20 0 -48 -18t-58 -47.5t-59.5 -67t-52.5 -77.5t-37.5 -78.5t-14.5 -69.5q0 -23 6.5 -35t16 -18.5t20 -9t19.5 -5.5l-3 -12
q-3 -1 -11 -1q-10 0 -22.5 1.5t-24 3.5t-20 5t-10.5 5q-24 26 -42.5 52t-18.5 65q0 55 28 116.5t73.5 113t102.5 85t115 33.5q22 0 38 -4q56 -14 88.5 -37t32.5 -61q0 -16 -6 -35q-20 -60 -44.5 -127t-47 -133t-40.5 -128t-25 -113z" />
    <glyph glyph-name="X" unicode="X" horiz-adv-x="723" 
d="M127 45q19 24 49 63.5t63 82t64 82t51 63.5q-9 52 -17.5 112.5t-18.5 112t-23 85.5t-31 34q-21 0 -41 -20t-38.5 -52t-34.5 -72t-28 -79t-18.5 -73.5t-6.5 -55.5q0 -19 5.5 -28.5t13.5 -13.5t18 -5t18 -3l-4 -12h-4q-9 0 -22.5 0.5t-27 2t-24.5 4t-13 5.5
q-11 14 -20.5 27t-17.5 27t-12.5 30t-4.5 37q0 51 19 107t52 103.5t77.5 79.5t95.5 34h25q18 0 37.5 -2t37.5 -7t32.5 -15.5t22.5 -26.5q23 -49 38 -114.5t27 -137.5q33 45 62 85t50 76t33 69t12 65v13q42 -2 67.5 -15t25.5 -42q0 -9 -3 -19q-3 -12 -25 -39t-55 -65t-74 -86
t-83 -103q6 -38 14.5 -89t18.5 -97t21 -78.5t22 -32.5q7 0 19.5 16t27.5 41t31.5 55.5t31 59t26 51.5l16.5 33q23 48 45 47q11 -2 11 -17q0 -2 -1 -10t-6 -19q-10 -20 -25 -52.5t-33 -68.5t-38 -72t-39 -65t-35.5 -46.5t-28.5 -16.5h-11q-42 0 -73 14.5t-45 41.5
q-10 19 -18.5 45.5t-16 57t-13.5 62.5t-12 61l-210 -281q-2 -1 -11 -1q-8 0 -17 3.5t-9 16.5q0 5 2 11.5t7 15.5z" />
    <glyph glyph-name="Y" unicode="Y" horiz-adv-x="764" 
d="M58 255q-12 13 -23 25.5t-19.5 26t-13.5 30t-5 37.5q0 55 28 116.5t73 113t102 85t115 33.5q22 0 38 -4q65 -15 92.5 -41t27.5 -64q0 -23 -9 -50q-18 -53 -44.5 -116t-51 -126.5t-42 -121.5t-17.5 -101q0 -42 23 -42q21 0 51 40q44 60 80 127t66.5 137.5t57 141.5
t51.5 138q5 13 5 22q0 12 -8 18q3 1 14 1q13 0 31.5 -3t36 -9.5t29.5 -17.5t12 -26q0 -10 -4 -18q-9 -21 -26.5 -70t-38 -110.5t-41 -128t-36.5 -120.5q-11 -40 -20.5 -76.5t-18.5 -72.5q14 -1 28 -3.5t31 -7.5q12 -3 25.5 -11.5t25 -19t19.5 -20.5t9 -17q-3 -8 -9 -8
q-7 0 -11 5q-11 12 -24 16.5t-28 4.5q-41 0 -65.5 -17.5t-37 -44.5t-16.5 -59.5t-4 -62.5q0 -37 6 -73q0 -6 -14 -6q-23 0 -44 11.5t-36.5 29.5t-24.5 40.5t-9 44.5q0 20 6 41q10 38 22 67t23.5 58t21.5 64t18 85l10 50q-21 -39 -40.5 -73t-36.5 -59t-30.5 -39.5
t-22.5 -14.5q-41 0 -70.5 11t-49 29.5t-28.5 44t-9 55.5q0 19 5 44q12 58 30 110t38.5 102t41.5 100t39 103q5 17 8.5 29.5t2.5 20.5q0 20 -15 20q-17 0 -43 -17.5t-56 -46t-60 -65.5t-54.5 -77t-39.5 -79.5t-15 -72.5q0 -17 6 -31t15 -24.5t19.5 -17t19.5 -7.5l-3 -12
q-2 0 -2.5 -0.5t-2.5 -0.5q-9 0 -22.5 3t-26.5 7.5t-23 9t-12 7.5z" />
    <glyph glyph-name="Z" unicode="Z" horiz-adv-x="661" 
d="M154 351q-14 1 -29.5 6t-29 11t-24 12t-16.5 10q-4 3 -8.5 13t-9 23.5t-7.5 28t-3 26.5q0 8 1 12q10 53 46 91t86.5 62t110 35.5t117.5 11.5q40 0 77 -5t67.5 -15t52.5 -23.5t32 -31.5q16 -29 23 -52t7 -42q0 -23 -7.5 -39t-18.5 -27q-33 -33 -80 -66t-99.5 -66
t-106.5 -67.5t-102.5 -71t-87.5 -75.5t-60 -82q48 33 97 45.5t97 12.5q42 0 80.5 -6.5t71.5 -15t58.5 -15t40.5 -6.5q19 0 20 13l1 17q2 0 4.5 0.5t5.5 0.5q6 0 11.5 -3.5t6.5 -16.5q-1 -27 -5.5 -47.5t-16.5 -35t-33 -21.5t-55 -7q-38 0 -72.5 8t-68.5 18t-67.5 18t-68.5 8
q-29 0 -59.5 -7.5t-62.5 -27.5q-36 25 -52.5 51.5t-16.5 54.5q0 45 35 92t89 93.5t120 89.5t128.5 80.5t113.5 67t76 47.5q21 15 21 31q0 11 -10.5 19.5t-27.5 14t-37.5 8t-41.5 2.5q-61 0 -122.5 -19.5t-111 -48t-80.5 -61.5t-31 -61q0 -31 40 -47z" />
    <glyph glyph-name="bracketleft" unicode="[" horiz-adv-x="482" 
d="M351 612q-8 -26 -23 -76.5t-33 -115t-37 -136t-36 -138t-30.5 -122t-19.5 -87.5q6 0 13.5 0.5t15.5 0.5q54 0 70.5 -17.5t16.5 -49.5q0 -17 -3.5 -27t-5.5 -10q-10 5 -22.5 7t-26.5 2q-15 0 -30.5 -1t-28.5 -1q-25 0 -41.5 7.5t-26.5 19.5t-14 28t-4 33q0 26 8 55
q3 13 12.5 48t22.5 85t29 110t32.5 122t32 121.5t28 108.5t20.5 83.5t10 45.5q5 4 26 4q13 0 31 -1.5t37 -4t37 -4t32 -1.5q15 0 23 3q2 1 3.5 -5.5t1.5 -16.5q0 -11 -2.5 -23.5t-9 -24t-17.5 -19t-28 -7.5q-5 0 -13.5 0.5t-17.5 1t-17.5 1t-14.5 1.5z" />
    <glyph glyph-name="backslash" unicode="\" horiz-adv-x="427" 
d="M273 -38q-3 17 -15.5 62.5t-30.5 105.5t-38.5 127.5t-39 128.5t-33 108t-19.5 67q-7 26 -14.5 50.5t-7.5 45.5q0 23 15 40.5t58 26.5q22 -90 45.5 -172.5t48 -163.5t49.5 -164.5t51 -176.5q3 -12 5.5 -22.5t2.5 -19.5q0 -20 -13 -32t-48 -12h-7.5t-8.5 1z" />
    <glyph glyph-name="bracketright" unicode="]" horiz-adv-x="410" 
d="M126 -66q8 26 23 76.5t33 115t37 136t36 138t30.5 122t19.5 87.5h-35q-51 0 -66.5 18t-15.5 48q0 17 3.5 28t5.5 9q9 -5 21 -7t26 -2q16 0 32 1.5t29 1.5q25 0 41.5 -7.5t26.5 -19.5t14 -28t4 -33q0 -14 -2 -27.5t-5 -27.5q-3 -13 -12.5 -48.5t-23 -85.5t-29.5 -110
t-32 -122t-31.5 -121.5t-28 -108.5t-21 -83.5t-9.5 -45.5q-8 -5 -26 -5q-14 0 -32.5 2l-37 4t-36.5 4t-32 2q-16 0 -23 -3q-2 -1 -3.5 5t-1.5 16q0 11 2.5 24t9 24.5t17.5 19t28 7.5h13.5t18 -0.5t18 -1.5t14.5 -2z" />
    <glyph glyph-name="asciicircum" unicode="^" horiz-adv-x="550" 
d="M227 594q14 20 29 20q12 0 22 -9.5t17 -17.5q19 -23 48 -55.5t56 -64t46.5 -57t19.5 -34.5q0 -11 -9 -23.5t-32 -31.5q-20 22 -45 55t-49.5 65t-44.5 58.5t-28 37.5q-41 -48 -80.5 -101t-82.5 -123q-31 14 -43.5 27.5t-12.5 28.5q0 16 14 35t35 42z" />
    <glyph glyph-name="underscore" unicode="_" horiz-adv-x="689" 
d="M604 -172q4 -15 4 -26q0 -16 -8 -20t-22 -4q-107 0 -200 3.5t-187 3.5q-64 0 -133 -3q0 29 11.5 40.5t35.5 11.5q94 0 194 -4t197 -4h55t53 2z" />
    <glyph glyph-name="grave" unicode="`" horiz-adv-x="254" 
d="M216 536q-14 -7 -27 -7q-26 0 -45 24.5t-43 59.5q-3 4 -11 6.5t-16 4t-14 3t-6 4.5q0 38 14 51t32 13q4 0 11.5 -2.5t16.5 -8t17 -14t14 -21.5q10 -23 16.5 -40.5t12 -30.5t12 -23t16.5 -19z" />
    <glyph glyph-name="a" unicode="a" horiz-adv-x="501" 
d="M320 47q8 0 24 21.5t37.5 58t47.5 86t53 105.5q11 23 22.5 36t22.5 11q10 -2 11 -14.5t-7 -31.5q-25 -54 -53 -110.5t-55 -103t-50 -77t-38 -30.5q-75 0 -113 32t-36 104q-30 -55 -57 -93.5t-44 -39.5q-8 0 -23.5 2t-30.5 6q-50 10 -72.5 50.5t-22.5 95.5q0 52 18 109.5
t49.5 105.5t75 79t93.5 31q42 0 69.5 -15.5t43.5 -29.5q1 3 5 13t-1 16q-1 1 1.5 2.5t6.5 1.5q13 1 31 -2t34.5 -10.5t28.5 -19t12 -26.5q0 -9 -4 -17q-12 -28 -30.5 -73t-36 -92.5t-29 -89.5t-8.5 -65q2 -12 7 -19t18 -7zM271 397q-9 11 -21.5 17.5t-27.5 6.5
q-22 0 -44 -16q-23 -17 -46 -58.5t-42.5 -92t-31.5 -100t-12 -81.5q0 -13 3.5 -22t13.5 -9q7 0 20.5 17t31 45t37.5 64.5t40.5 76l41 79t37.5 73.5z" />
    <glyph glyph-name="b" unicode="b" horiz-adv-x="460" 
d="M97 681q3 9 4.5 21t-0.5 21q1 1 5 1.5t9 0.5q11 0 28.5 -3t34 -10t28.5 -17.5t12 -26.5q0 1 -12 -31t-30.5 -85t-40.5 -120t-43 -136q15 37 30 69.5t33 57.5t38.5 39.5t46.5 14.5q43 0 74 -42.5t31 -116.5q0 -54 -15 -110.5t-43 -102.5t-68 -75.5t-90 -29.5
q-30 0 -53 7.5t-41 32.5q-4 -10 -9.5 -21.5t-15.5 -11.5h-2q-49 11 -66.5 39.5t-17.5 63.5q0 18 4 36.5t9 35.5zM49 75q10 -16 20 -22.5t20 -6.5q22 0 47 32t47 79t36.5 100.5t14.5 97.5q0 22 -6 37t-20 15q-10 0 -23 -18.5t-28.5 -48t-31 -66.5t-30 -73.5t-27 -69.5
t-19.5 -54v-2z" />
    <glyph glyph-name="c" unicode="c" horiz-adv-x="315" 
d="M346 319q-11 -23 -26.5 -56t-34 -69t-39.5 -71.5t-43.5 -64t-45.5 -46t-46 -17.5q-48 0 -81 11.5t-54 32.5t-30.5 50.5t-9.5 65.5q0 60 20.5 118.5t52.5 104.5t72.5 74.5t80.5 28.5q15 0 30 -3.5t28 -10.5t22.5 -19t13.5 -28q2 -12 1.5 -25t-5.5 -24.5t-15 -19t-26 -8.5
q-8 -1 -13.5 1.5t-6.5 6.5q5 2 9 14t4 26q0 11 -3 18.5t-11 7.5q-12 0 -34.5 -29.5t-45 -76t-39 -102.5t-16.5 -110q0 -29 11.5 -45.5t31.5 -17.5q14 0 31.5 15t36 39.5t37.5 55t36.5 62t32 60.5t25.5 50q3 5 7 13.5t10 16t13 13t15 4.5q11 -2 11 -18q0 -5 -2 -13.5
t-5 -14.5z" />
    <glyph glyph-name="d" unicode="d" horiz-adv-x="498" 
d="M318 45q8 0 24 21.5t37.5 59t47 87t52.5 105.5q11 23 22.5 36t22.5 11q10 -2 11 -14.5t-7 -31.5q-25 -54 -53 -110.5t-54.5 -103t-49.5 -77t-38 -30.5q-73 0 -111.5 34t-33.5 104q-8 -13 -21 -35.5t-28 -44.5t-29.5 -38.5t-24.5 -16.5q-77 0 -113 41t-36 113
q0 52 18 109.5t49.5 105.5t75 79t93.5 31q37 0 63 -12.5t43 -26.5q27 82 50.5 147.5t34.5 101.5q3 9 4.5 18t-0.5 15q0 1 10 1q9 0 26.5 -3.5t34 -10.5t29 -18t12.5 -26q0 -10 -4 -18q-7 -15 -19 -47t-26.5 -74t-31 -91t-32 -98.5t-29.5 -96.5t-24 -85q-2 -8 -7.5 -26
t-8 -37t1 -33.5t19.5 -14.5zM264 400q-9 8 -19.5 14.5t-22.5 6.5q-22 0 -44 -16q-23 -17 -46 -58.5t-42.5 -92t-31.5 -100t-12 -81.5q0 -12 3 -21.5t14 -9.5q8 0 21.5 16t30.5 43t36.5 63t39 76t38.5 81t35 79z" />
    <glyph glyph-name="e" unicode="e" horiz-adv-x="336" 
d="M366 319q-10 -22 -25.5 -55t-35 -69t-41.5 -72t-45.5 -65t-47 -47t-46.5 -18q-52 0 -87.5 11t-58 32t-32.5 52t-10 70q0 52 18 109.5t48.5 105t71 78.5t84.5 31q45 0 72 -27.5t27 -69.5q0 -36 -15 -63t-40 -47t-58.5 -33.5t-70.5 -21.5q-11 -32 -16.5 -63t-5.5 -57
q0 -19 4.5 -31.5t11.5 -20t15.5 -10.5t16.5 -3q20 0 41 15t42 39.5t40.5 55.5t37 62.5t32 60.5t24.5 50q3 5 7 13t9.5 15.5t12.5 13t15 5.5t10.5 -6.5t1.5 -14.5t-3.5 -15t-3.5 -10zM92 270q19 7 39 19.5t36 29t26.5 35.5t10.5 39q0 10 -3.5 16.5t-10.5 6.5q-18 0 -45 -40
t-53 -106z" />
    <glyph glyph-name="f" unicode="f" horiz-adv-x="234" 
d="M3 -285q-39 0 -64.5 12.5t-41 33.5t-21.5 48.5t-6 57.5q0 32 5 65t12 62q-7 4 -7 15q0 8 4 15.5t12 8.5l174 557q4 12 8.5 31.5t4.5 33.5v6q0 2 8 2q10 0 28 -3t36 -10.5t31 -19t13 -27.5q0 -8 -3 -15q-23 -59 -47 -128.5t-47.5 -142t-44.5 -144t-38 -133.5q17 0 36 15.5
t37.5 40.5t36.5 56t34 62t29.5 58.5t22.5 45.5q3 5 6.5 12.5t8.5 15t11.5 13t15.5 6.5q13 2 14 -16q1 -5 -1.5 -14.5t-5.5 -15.5q-25 -52 -52.5 -110t-57 -106t-59.5 -79t-59 -28q22 -21 30.5 -57.5t8.5 -75.5q0 -28 -4.5 -54.5t-12.5 -47t-19 -33.5t-25 -13h-11zM-27 -206
q0 -40 16 -40q5 0 12 8.5t13 25t10 40.5t3 56q-1 26 -5.5 46.5t-18.5 34.5q-13 -51 -21.5 -95t-8.5 -76z" />
    <glyph glyph-name="g" unicode="g" 
d="M530 319q-29 -60 -56.5 -117.5t-59 -109.5t-70 -96t-89.5 -78q-10 -38 -24 -75.5t-36.5 -66.5t-55.5 -47t-81 -18q-45 0 -66 22.5t-21 51.5q0 30 15 49.5t39 33t54 23.5t60 21q17 54 27 114t24 113q-9 -15 -22.5 -38.5t-28.5 -45t-30.5 -37.5t-28.5 -16q-75 0 -109 42
t-34 111q0 52 18 109.5t49.5 105.5t74.5 79.5t93 31.5q41 0 69.5 -15.5t43.5 -29.5q3 6 5.5 14.5t-1.5 13.5q0 2 9 2q10 0 27 -3.5t34 -10.5t29.5 -18.5t12.5 -27.5q0 -9 -4 -17q-23 -55 -41 -104t-33 -97.5t-28 -98t-25 -105.5q33 27 62 67.5t55.5 86t49.5 92.5t44 88
q3 6 7.5 14.5t10.5 16t12.5 12.5t13.5 4q8 -1 10.5 -7t1.5 -13.5t-3.5 -15zM271 398q-9 11 -21.5 17t-26.5 6q-22 0 -45 -16t-46 -58t-42.5 -92t-31.5 -99.5t-12 -81.5q0 -14 4 -22.5t13 -8.5q10 0 27 21t37 54.5t41 74.5t41 80t36 72.5t25 51.5zM125 -139
q-52 -16 -83.5 -32t-31.5 -45q0 -14 8.5 -23.5t22.5 -9.5q18 0 41.5 24t42.5 86z" />
    <glyph glyph-name="h" unicode="h" horiz-adv-x="470" 
d="M501 319q-9 -19 -23.5 -50.5t-32.5 -67t-37.5 -71.5t-38 -65.5t-35 -48t-27.5 -18.5q-39 0 -66.5 10t-45 27.5t-25.5 40t-8 48.5q0 31 7.5 63t18 63.5t23 62t23.5 59.5q2 6 2 8q0 5 -3 5q-2 -2 -15.5 -30.5t-33 -70t-42.5 -89.5t-44.5 -89.5t-38.5 -70t-25 -30.5
q-2 0 -4 -0.5t-4 -0.5q-29 0 -48.5 9.5t-31.5 24.5t-17.5 33t-5.5 36q0 27 7 54.5t15 50.5l153 468q3 9 5 20t0 22q2 2 13 2t28 -3t33.5 -10t28 -18t11.5 -27q0 -7 -3 -16q-7 -18 -22 -60.5t-34 -96.5t-39 -113.5t-37 -112t-27.5 -91.5t-10.5 -51q0 -5 2 -5q17 32 36.5 70
t38.5 75.5t36 72t29 58.5q2 3 6.5 13t9.5 22t9 22.5t4 15.5v3q1 1 7.5 1.5t13.5 0.5q14 0 37 -3t44.5 -11t37.5 -21t16 -34q0 -10 -4 -21q-11 -26 -28 -68t-32.5 -87.5t-26.5 -87.5t-11 -68q0 -25 18 -27q8 -1 20.5 13.5t28 38.5t32 54.5t32 61t29.5 58t23 46.5q2 4 6 11.5
t9.5 15.5t13 14t16.5 6q5 0 8 -5t3 -12q0 -5 -2 -14t-5 -15z" />
    <glyph glyph-name="i" unicode="i" horiz-adv-x="241" 
d="M60 47q8 0 24 21.5t37.5 58t47.5 86t53 105.5q11 23 22.5 36t22.5 11q10 -2 11 -14.5t-7 -31.5q-25 -54 -53 -110.5t-54.5 -103t-49.5 -76.5t-38 -30q-73 0 -110.5 33.5t-37.5 91.5q0 28 10 65t24.5 77.5t31.5 82.5t30 81q3 9 6.5 23.5t1.5 26.5q1 1 5 1.5t9 0.5
q10 0 27 -4t33.5 -12.5t28 -20.5t11.5 -27q0 -2 -4.5 -13.5t-11.5 -29.5t-16 -41.5t-19 -49.5q-6 -17 -17.5 -48.5t-22 -65t-16.5 -63t-1 -42.5q3 -8 7 -13.5t15 -4.5zM116 671q4 11 7 21.5t-1 15.5q6 0 20.5 -3t29 -10t25.5 -17t11 -24q0 -8 -9.5 -30t-20.5 -45.5t-21 -43
t-11 -22.5q-40 0 -54 14.5t-14 31.5q0 9 5 24.5t11 32t12.5 31.5t9.5 24z" />
    <glyph glyph-name="j" unicode="j" horiz-adv-x="233" 
d="M108 660q3 11 6 21.5t0 15.5q6 0 19.5 -3t27.5 -10t24.5 -17t10.5 -23q0 -9 -8 -30t-18 -42.5t-18 -39t-9 -19.5q-20 0 -32.5 4t-19 10.5t-9 15t-2.5 16.5q0 9 3 22.5t7.5 28t9.5 28t8 22.5zM263 319q-29 -63 -57 -122.5t-59.5 -112t-70 -95t-87.5 -71.5
q-10 -39 -22 -75.5t-33 -65.5t-52.5 -46.5t-80.5 -17.5q-42 0 -61.5 21t-19.5 49t13 48t34.5 34.5t49 25.5t56.5 21q13 72 31.5 136.5t38 127.5t40 128t38.5 138l3.5 14t-0.5 15q0 2 13 2q10 0 27.5 -3t33.5 -10t28 -18t12 -27q0 -8 -3 -17q-23 -59 -41.5 -110t-34 -99.5
t-29 -97.5t-25.5 -105q30 23 58 61.5t54.5 84.5t50.5 94.5t46 91.5q3 7 8 15.5t11 16t12.5 12t13.5 3.5q7 -2 9.5 -7.5t1.5 -12.5t-3 -14.5t-4 -11.5zM-141 -140q-52 -16 -77.5 -33.5t-25.5 -42.5q0 -14 7.5 -23t19.5 -9q17 0 37.5 23.5t38.5 84.5z" />
    <glyph glyph-name="k" unicode="k" horiz-adv-x="436" 
d="M159 270q10 3 26 13.5t32 25t27.5 31.5t11.5 34q0 13 -5 19t-13 6q-16 0 -32.5 -30t-46.5 -99zM256 45q8 0 24 21.5t37.5 59t47 87t52.5 105.5q11 23 22.5 36t22.5 11q10 -2 11 -14.5t-7 -31.5q-25 -54 -53 -110.5t-54.5 -103t-49.5 -77t-38 -30.5q-45 0 -74 13.5
t-46.5 37.5t-24.5 57t-7 71q-15 -36 -28 -67.5t-24 -55.5t-20.5 -37.5t-16.5 -13.5q-30 0 -50 10t-32 25t-17 33t-5 35q0 27 7 55t15 51l152 468q3 9 4.5 21.5t-0.5 20.5q2 2 15 2q11 0 28 -3t33.5 -10t28 -18t11.5 -27q0 1 -7.5 -20t-19.5 -56t-27.5 -80.5t-32 -94t-32 -96
t-27.5 -86.5t-19.5 -65.5t-7.5 -32.5q0 -3 1 -3q2 1 9.5 18t19.5 43t26 58t28.5 63.5t28.5 59.5t24 45q14 23 33.5 38t42.5 15q36 0 55 -23.5t19 -54.5q0 -24 -12 -47t-31.5 -42.5t-43 -34t-45.5 -20.5q15 -15 23 -35.5t11.5 -43.5t4 -45.5t1 -40.5t3.5 -29t11 -11z" />
    <glyph glyph-name="l" unicode="l" horiz-adv-x="236" 
d="M56 45q8 0 24 21.5t37.5 59t47 87t52.5 105.5q11 23 22.5 36t22.5 11q10 -2 11 -14.5t-7 -31.5q-25 -54 -53 -110.5t-54.5 -103t-49.5 -77t-38 -30.5q-79 3 -118.5 45.5t-19.5 128.5l170 508q2 8 4.5 22t-2.5 22q0 1 4 1.5t8 0.5q10 0 28 -3.5t35.5 -10.5t30.5 -18
t13 -27q0 -9 -4 -17q-7 -15 -19.5 -47t-27.5 -74t-32 -91.5t-33.5 -99.5t-31 -97t-25.5 -85q-3 -12 -8.5 -31t-7.5 -37t2 -30.5t19 -12.5z" />
    <glyph glyph-name="m" unicode="m" horiz-adv-x="712" 
d="M532 45q8 0 24 21.5t37.5 59t47 87t52.5 105.5q11 23 22.5 36t22.5 11q10 -2 11 -14.5t-7 -31.5q-25 -54 -53 -110.5t-54.5 -103t-49.5 -77t-38 -30.5q-77 0 -116 42t-29 108q3 29 12 60t20 61t22 57t18 47q1 3 1 7q0 6 -3 5t-16.5 -28.5t-33 -68t-42 -88.5t-42.5 -90
t-36 -71t-21 -32q-34 0 -57 7.5t-36.5 20.5t-19.5 31t-6 39q0 31 9.5 65t21.5 69q7 19 16 40.5t17 41t13.5 35.5t5.5 26q0 5 -2 3q-4 -4 -18 -32t-34 -68.5t-42 -87t-42 -87t-35.5 -69.5t-20.5 -34q-13 0 -30 1t-31 7q-34 14 -46 37t-12 53q0 27 9.5 68t23.5 87.5t29 93
t26 84.5q2 7 4 16.5t-1 17.5q0 1 3.5 1h8.5q10 0 27.5 -2t34.5 -8t29 -15.5t12 -24.5q0 -3 -6.5 -23t-16 -48.5t-20.5 -63t-20.5 -66.5t-16 -59t-6.5 -41q0 -5 1 -7q11 21 26 50t31.5 61t33.5 64t32 60t26.5 49.5t16.5 32.5q8 15 10.5 26t2.5 14q0 1 6 1.5t9 0.5
q12 0 33.5 -2.5t42.5 -9.5t36.5 -20t15.5 -33q0 -10 -5 -23q-4 -10 -12 -31t-18 -48t-21 -57t-20 -57t-14.5 -48.5t-5.5 -30.5v-3q16 29 36 67.5t40.5 78.5t39 76.5t33.5 62.5q2 4 8 15t12.5 23.5t11.5 23.5t5 14v1q0 1 12 1q13 0 35.5 -2.5t44 -10t37.5 -20.5t16 -34
q0 -6 -9.5 -32t-23 -61.5t-28.5 -77t-26 -79.5q-10 -35 -12.5 -56.5t-0.5 -34t8 -17t14 -4.5z" />
    <glyph glyph-name="n" unicode="n" horiz-adv-x="489" 
d="M309 45q8 0 24 21.5t37.5 59t47 87t52.5 105.5q11 23 22.5 36t22.5 11q10 -2 11 -14.5t-7 -31.5q-25 -54 -53 -110.5t-54.5 -103t-49.5 -77t-38 -30.5q-77 0 -116 42t-29 108q4 28 13.5 59.5t20 62t21.5 57.5t18 45q1 3 1 8q0 6 -3 5q-2 -1 -16 -28.5t-34.5 -68t-44 -88
t-45 -89.5t-37.5 -71.5t-22 -34.5q-23 0 -44.5 5t-38 16.5t-26.5 30.5t-10 47q0 27 9.5 68t23 87t29 93t26.5 85q2 7 3.5 15.5t1.5 13.5q0 2 -0.5 3.5t-0.5 2.5t10 1q11 0 28.5 -2t34.5 -8t29 -15.5t12 -24.5q0 -3 -6.5 -23.5t-16.5 -50t-21 -65.5t-21 -69.5t-16.5 -61
t-6.5 -41.5q0 -2 0.5 -3t0.5 -3q13 21 30 51t34.5 63t35.5 66.5t33 62.5t26 51t15 31q6 13 7 25t-1 14q2 2 11 3t14 1q14 0 36.5 -3t43.5 -10.5t36.5 -20.5t15.5 -34q0 -6 -6 -24t-16 -43.5t-21.5 -56.5t-23 -63t-20.5 -62.5t-13 -55.5q-5 -34 2.5 -45t18.5 -11z" />
    <glyph glyph-name="o" unicode="o" horiz-adv-x="439" 
d="M-59 154q0 46 15.5 102.5t44.5 105.5t71 82.5t95 33.5q24 0 41.5 -7.5t28 -17.5t15.5 -20.5t5 -17.5q0 13 -4.5 26.5t-11.5 24.5t-16 18t-19 8q9 16 23 25.5t30 9.5q19 0 33 -12.5t23.5 -33t14.5 -47.5t5 -55q0 -63 -18 -130.5t-50 -123t-78 -91.5t-101 -36q-31 0 -58 11
t-46.5 31t-31 49t-11.5 65zM262 370q-6 -19 -18 -26t-23 -7q-9 0 -16 3t-9 8q6 2 10.5 15t4.5 27q0 10 -3 17t-10 7q-10 0 -24.5 -15t-30 -40t-31.5 -57.5t-28.5 -68.5t-20 -72.5t-7.5 -68.5q0 -26 7.5 -44.5t27.5 -18.5q27 0 57 34t55.5 85t42 111t16.5 111z" />
    <glyph glyph-name="p" unicode="p" horiz-adv-x="453" 
d="M26 34q-10 -38 -17.5 -74t-13.5 -68q-5 -29 -8.5 -61t-7.5 -58t-11 -43t-20 -17q-26 0 -44.5 9.5t-30 25.5t-17 35t-5.5 39q0 22 5.5 44t13.5 44t17 43.5t16 42.5q10 33 21.5 75t23 86.5t22.5 89t20.5 83t17 66.5t11.5 41q2 5 2.5 12t0.5 13q0 7 -1 9q-1 1 10 1
q10 0 26.5 -2t33 -7.5t29.5 -14.5t15 -23q23 26 50.5 40.5t54.5 14.5q25 0 44 -12.5t32 -34.5t20 -50.5t7 -59.5q0 -48 -13.5 -100.5t-36.5 -98t-54 -78.5t-66 -43q-23 -6 -48 -6q-31 0 -58 9.5t-41 27.5zM82 244q-11 -39 -22 -78.5t-21 -77.5q17 -32 43 -32q24 0 48.5 30.5
t44.5 75.5t33 96.5t15 93.5q0 26 -5.5 41.5t-18.5 15.5q-17 0 -34 -17.5t-33 -43t-29 -54t-21 -50.5z" />
    <glyph glyph-name="q" unicode="q" horiz-adv-x="485" 
d="M272 400q-19 21 -46 21q-23 0 -45 -16q-23 -17 -46 -58.5t-42 -92t-31.5 -100t-12.5 -81.5q0 -13 3.5 -22t13.5 -9q12 0 37 35t54.5 88.5t60 116t54.5 118.5zM335 -94q-9 9 -33 9q-23 0 -41 -13.5t-18 -53.5q0 -17 1 -35.5t1 -36.5v-23.5t-3 -20.5t-9.5 -15t-19.5 -6
q-14 0 -32.5 6.5t-34.5 20t-27 34t-11 49.5q0 36 16.5 75t28.5 77q14 46 20.5 84.5t10.5 67.5q-14 -25 -27.5 -47.5t-26 -39.5t-23.5 -27t-19 -10q-77 0 -112.5 41t-35.5 113q0 52 18 109.5t49.5 105.5t74.5 79t93 31q42 0 69.5 -15t43.5 -29q5 13 5.5 20t9.5 7t26 -3.5
t33.5 -10.5t28.5 -18t12 -26q0 -5 -1 -8.5t-3 -8.5q-21 -48 -41.5 -100.5t-38.5 -105.5t-33.5 -105.5t-25.5 -100.5q13 0 26.5 -4t24.5 -12t18 -19t7 -25q0 -7 -1 -10z" />
    <glyph glyph-name="r" unicode="r" horiz-adv-x="324" 
d="M144 45q8 0 24 21.5t37.5 59t47 87t52.5 105.5q11 23 22.5 36t22.5 11q10 -2 11 -14.5t-7 -31.5q-25 -54 -53 -110.5t-54.5 -103t-49.5 -77t-38 -30.5q-80 3 -114.5 44t-25.5 114q8 54 29.5 104t42.5 100q18 43 25 78.5t-9 52.5l-77 -172q-3 -6 -8 -15.5t-11 -18.5
t-13.5 -14.5t-15.5 -2.5t-9.5 16t8.5 34q22 45 45.5 94.5t46.5 96.5q3 6 7.5 17.5t8.5 24.5t6 24.5t0 16.5q-2 4 5.5 5t16.5 -1t17.5 -7.5t8.5 -15.5q1 -9 -1.5 -18t-4.5 -19q-2 -14 5 -25t18 -21.5t22.5 -21t19.5 -23.5q17 -30 14.5 -61t-19.5 -71q-3 -6 -9 -22
t-14.5 -37.5t-17.5 -46.5t-16 -50q-11 -35 -14.5 -57t-2 -34t7 -16.5t13.5 -4.5z" />
    <glyph glyph-name="s" unicode="s" horiz-adv-x="300" 
d="M63 145q-17 35 -33 65.5t-23 65.5l-5 -11q-9 -19 -19 -25t-17 -2t-8 17.5t9 33.5l51 110q5 11 14.5 25t21 27t25 21.5t26.5 8.5q10 0 23.5 -4t25.5 -11.5t20.5 -18.5t8.5 -25q0 -12 -9 -27q-21 -29 -32 -48.5t-11 -42.5q0 -14 6.5 -33.5t14 -42.5t14 -48.5t6.5 -49.5
q0 -31 -12 -56t-31.5 -42.5t-43 -27t-47.5 -9.5q-22 0 -45.5 4.5t-43 15.5t-32.5 29.5t-15 46.5q-2 22 8 39.5t26 26.5t35.5 8t37.5 -17q-8 -2 -15 -17.5t-7 -35.5q0 -32 17 -47.5t34 -15.5q16 0 29 12.5t13 38.5q0 27 -17 62z" />
    <glyph glyph-name="t" unicode="t" horiz-adv-x="242" 
d="M-16 560q0 -9 2 -13.5t13 -6.5q12 -2 27 -0.5t35 5.5q12 34 22.5 62.5t16.5 46.5q5 14 5 23.5t-2 14.5q2 2 13 2.5t26 -2.5t31 -8.5t28 -14t17 -21t-2 -28.5q-5 -14 -12.5 -30.5t-14.5 -33.5q43 -6 56 -37q2 -7 1 -20t-5.5 -25t-12.5 -20t-20 -4q3 17 -5 25.5t-19 10.5
q-5 1 -10 1.5t-10 0.5q-44 -120 -69.5 -199t-39.5 -132q-11 -35 -14 -57t-0.5 -34t8 -16.5t13.5 -4.5t24 21.5t37.5 59t47 87t52.5 105.5q11 23 22.5 36t22.5 11q10 -2 11 -14.5t-7 -31.5q-25 -54 -53 -110.5t-54.5 -103t-49.5 -77t-38 -30.5q-92 2 -125 48t-15 123
q19 75 47 154.5t53 156.5h-14q-17 0 -31.5 4.5t-23 13.5t-10 22.5t9.5 32.5q2 2 7.5 4.5t8.5 2.5z" />
    <glyph glyph-name="u" unicode="u" horiz-adv-x="492" 
d="M312 45q8 0 24 21.5t37.5 59t47 87t52.5 105.5q11 23 22.5 36t22.5 11q10 -2 11 -14.5t-7 -31.5q-25 -54 -53 -110.5t-54.5 -103t-49.5 -77t-38 -30.5q-75 0 -113 35t-33 103q-15 -27 -29 -51.5t-27 -42.5t-24.5 -29t-19.5 -11t-28 2.5t-34 7.5q-35 12 -55 30.5
t-28.5 41.5t-6.5 51t12 59q11 35 27.5 80.5t32.5 87t27.5 73.5t12.5 40q0 9 17 6.5t37 -11.5t36.5 -23t16.5 -30q0 -4 -1 -8t-3 -9q-6 -16 -16 -41t-21.5 -55t-23 -63t-21 -64t-15.5 -58t-6 -45q0 -11 4 -19.5t13 -8.5q10 0 31 28.5t46.5 72t52.5 95.5t49.5 98.5t37 81.5
t14.5 45v4q0 2 10 2t27 -3t33.5 -10t28.5 -17.5t12 -25.5q0 -9 -4 -17q-11 -23 -27 -62.5t-31.5 -83t-29 -86.5t-18.5 -74q-4 -30 3.5 -39.5t18.5 -9.5z" />
    <glyph glyph-name="v" unicode="v" horiz-adv-x="402" 
d="M29 9q-52 10 -73.5 44t-21.5 77q0 20 5 45q14 63 36 126t45 129q4 11 6.5 21t2.5 16v4q2 2 11 2q10 0 27 -3t33 -10t27.5 -18t11.5 -26q0 -1 -7 -20.5t-18 -51t-23 -70t-23 -77t-18 -72.5t-7 -56q0 -27 16 -27q7 0 17 8q33 31 64 84t55 110.5t39 113t15 92.5q0 18 -7 22
q0 2 15 2q10 0 22.5 -2t24 -6.5t19.5 -12.5t8 -21q0 -23 -13.5 -64t-35.5 -88.5t-49.5 -97t-55.5 -89.5t-53.5 -65.5t-43.5 -25.5q-10 0 -24 2t-27 5z" />
    <glyph glyph-name="w" unicode="w" horiz-adv-x="627" 
d="M251 421q3 8 8.5 23t5.5 24v3q2 2 11 2q10 0 27 -3t33 -10t27.5 -18t11.5 -26q0 -2 -7 -22t-18 -51t-23.5 -69t-23.5 -76t-18 -71.5t-7 -55.5q0 -29 14 -29q8 0 16.5 7t14.5 14q30 33 57 82.5t48 103.5t33.5 106.5t12.5 91.5q0 20 -8 25q2 2 16 2q10 0 22.5 -2t24 -6.5
t19.5 -12.5t8 -21v-5v-6q0 -27 -13.5 -69t-35.5 -88.5t-49 -93t-53.5 -84t-50.5 -61t-39 -23.5q-41 0 -68.5 10.5t-44.5 28.5t-24.5 41.5t-7.5 50.5q-13 -26 -26 -49.5t-24.5 -41t-22 -27.5t-19.5 -10q-39 0 -67 10t-45.5 27t-25.5 39.5t-8 48.5q0 11 1 23t4 24
q4 19 12.5 49t19 63t22 66t21.5 60t17.5 43.5t10.5 16.5q10 0 27 -3t33.5 -10t28.5 -18t12 -27q0 -5 -1 -8.5t-3 -8.5q-6 -15 -16 -40.5t-21 -55.5t-22 -63t-20 -64t-14.5 -58t-5.5 -45q0 -11 4 -19.5t13 -8.5q11 0 27 21t34 54t38 75t38 83.5t33.5 79t25.5 62.5z" />
    <glyph glyph-name="x" unicode="x" horiz-adv-x="462" 
d="M11 -8q-11 0 -16 5.5t-5 10.5q0 4 12.5 24t31.5 48.5t42 61.5t45 65q-5 16 -13 48.5t-16 65.5t-14.5 58t-6.5 27l-41 -87q-3 -6 -8 -15.5t-11 -18.5t-13.5 -14.5t-15.5 -2.5t-9.5 16t8.5 34q12 25 25 52t27 56q5 11 11 24.5t11 21.5q11 0 23.5 1.5t24.5 1.5q27 0 50 -9.5
t32 -41.5q4 -14 7.5 -31.5t6.5 -35.5t5.5 -35.5t5.5 -32.5q15 25 32 55t31.5 58t24 51t9.5 34q0 7 -3 12q2 2 13 2q8 0 19.5 -2t22 -6.5t18 -13.5t7.5 -22q0 -14 -13.5 -37.5t-35.5 -54t-50 -65.5t-57 -70q6 -32 13.5 -64t15.5 -58t16 -42.5t16 -16.5h2q10 9 26 33t36 60
t43 81t47 95q11 23 22.5 36t22.5 11q10 -2 11 -14.5t-7 -31.5q-25 -54 -53 -110.5t-54.5 -103t-49.5 -77t-38 -30.5q-36 0 -60.5 7t-42 23.5t-30 42.5t-25.5 65q-21 -27 -40 -53t-35.5 -46.5t-30 -32.5t-22.5 -12z" />
    <glyph glyph-name="y" unicode="y" horiz-adv-x="487" 
d="M71 1q-75 0 -110.5 35t-35.5 89q0 35 10.5 73t25.5 77t32 78t30 77q4 12 6.5 21.5t2.5 15.5v4q2 2 11 2q10 0 27 -3t33 -10t27.5 -18t11.5 -26q0 -2 -8 -22.5t-20.5 -52t-27 -70t-27 -76.5t-20.5 -71.5t-8 -54.5q0 -11 4 -19t13 -8q10 0 31 29t47 73.5t53 97t49.5 100
t37 82.5t14.5 44q0 3 1.5 4t8.5 1q10 0 27.5 -3t34 -10t28.5 -18t12 -27q0 -9 -4 -17q-23 -54 -41.5 -104t-34 -99.5t-28.5 -100t-25 -106.5q30 22 59.5 62.5t56.5 87.5t51 95t42 85q3 5 7 13.5t9.5 16t12.5 12.5t16 5q7 -2 9.5 -7.5t1.5 -12.5t-3 -14t-4 -12
q-25 -53 -53.5 -112.5t-62.5 -115t-73 -101.5t-85 -72q-10 -39 -24.5 -76t-37 -66t-56 -47t-81.5 -18q-45 0 -65.5 22t-20.5 51q0 30 15.5 49.5t39.5 33.5t54 24t59 21q17 67 29.5 128t26.5 117q-16 -32 -32 -60t-30.5 -49.5t-27 -34t-21.5 -12.5zM112 -140q-57 -18 -86 -36
t-29 -47q0 -14 6 -24t20 -10q20 0 44.5 25.5t44.5 91.5z" />
    <glyph glyph-name="z" unicode="z" horiz-adv-x="417" 
d="M140 461q26 0 53 6t47 6q11 0 26.5 -2t30 -8t24.5 -17t10 -28q0 -18 -13 -43t-33 -53.5t-45 -60l-50 -63t-46 -61.5t-34 -56q-8 -16 -8 -21t5 -5q6 0 19 6t30.5 13t37 13t37.5 6q11 0 21.5 -3t18.5 -8q24 35 57 98t70 138q11 23 22.5 36t22.5 11q10 -2 11 -14.5t-7 -31.5
q-23 -48 -48 -99.5t-49 -95.5t-46.5 -76.5t-38.5 -44.5q-5 -4 -12.5 -5.5t-14.5 6.5q-9 10 -18.5 12t-21.5 2q-26 0 -50.5 -8t-46.5 -8q-24 0 -42.5 9t-30.5 23t-18.5 32.5t-6.5 38.5q0 29 14 57q7 15 30 43.5t51.5 64t57 72.5t46.5 68q5 10 5 12q0 3 -4 3q-3 0 -8.5 -2.5
t-11.5 -4.5q-20 -9 -42.5 -15t-42.5 -6q-8 0 -16 1t-15 4l-37 -83q-3 -6 -8 -15.5t-11 -18.5t-13.5 -14.5t-15.5 -2.5t-9.5 16t8.5 34q14 28 28.5 58.5t29.5 61.5q1 6 1 14.5t2.5 17t7 14.5t14.5 7q20 -14 37.5 -22t38.5 -8z" />
    <glyph glyph-name="braceleft" unicode="{" horiz-adv-x="491" 
d="M189 -68q11 -36 30 -49.5t37 -19t31.5 -9t13.5 -19.5q0 -8 -2.5 -10t-10.5 -2q-47 0 -86 21.5t-66.5 56t-43 79t-15.5 89.5q0 31 7.5 61t24 56.5t42 48t61.5 36.5q22 9 34.5 15t12.5 13q0 4 -8 12t-18.5 19.5t-21 26t-15.5 32.5q-7 24 -7 52q0 50 22 98.5t59.5 87t87 62
t103.5 23.5q11 0 22 -0.5t11 -16.5q0 -13 -8.5 -15t-22 -4t-31.5 -8.5t-39 -27.5q-20 -21 -43 -58t-43 -78t-33 -80t-13 -63q0 -23 9 -34t20 -17t20 -12t9 -19q0 -19 -14 -24t-32 -10t-36 -17t-27 -45q-4 -15 -8.5 -39.5t-8.5 -53.5t-6.5 -59t-2.5 -54q0 -28 5 -45z" />
    <glyph glyph-name="bar" unicode="|" horiz-adv-x="436" 
d="M203 723q3 0 6.5 0.5t6.5 0.5q21 0 34.5 -9t21 -24t10 -34.5t2.5 -40.5q0 -20 -1 -40t-3 -37q-5 -64 -10 -136t-9.5 -145.5t-8.5 -144t-7 -130.5t-5 -106.5t-2 -71.5q0 -20 2 -24q-8 -4 -17 -4q-13 0 -21.5 9.5t-14 25t-7.5 35.5t-2 41q0 11 0.5 22t1.5 22q1 15 4 57.5
t6.5 101.5t7 129t6.5 140.5t5 136.5t2 117q0 45 -1.5 74t-6.5 35z" />
    <glyph glyph-name="braceright" unicode="}" horiz-adv-x="461" 
d="M276 603q-11 36 -30 49.5t-37.5 19t-32 9t-13.5 19.5q0 12 9.5 12.5t17.5 0.5q43 0 78.5 -21.5t60.5 -56t38.5 -78.5t13.5 -89q0 -33 -7.5 -64t-23 -58t-39.5 -48t-58 -34q-22 -8 -34.5 -15t-12.5 -14q0 -4 8 -11.5t18.5 -19t21 -26t15.5 -32.5q7 -24 7 -52
q0 -50 -22.5 -98.5t-60 -87t-87 -62t-103.5 -23.5q-5 0 -11 -0.5t-10.5 0.5t-7.5 5t-3 12q0 13 8 15t22 4t32 8.5t39 27.5q20 21 43 58t43 78t33 80t13 63q0 23 -9 33.5t-20 16.5t-20 12t-9 20q0 19 14 24t32 10t36 17t27 45q4 14 8 39t8 53.5t6.5 58.5t2.5 54q0 31 -4 46z
" />
    <glyph glyph-name="asciitilde" unicode="~" horiz-adv-x="731" 
d="M647 330q1 -8 1.5 -14.5t0.5 -13.5q0 -33 -10.5 -55.5t-29 -36t-43.5 -19.5t-53 -6q-39 0 -75.5 8.5t-72.5 21.5t-71 27t-71 26q-18 5 -34 5q-28 0 -50 -13.5t-22 -42.5v-6q0 -3 -7 -3q-11 0 -17 7t-6 25q0 46 33 78t90 32q37 0 81 -14t90 -31.5t92 -31.5t88 -14
q30 0 39 11.5t12 26t6 26t20 11.5q6 0 9 -4z" />
    <glyph glyph-name="exclamdown" unicode="&#xa1;" horiz-adv-x="314" 
d="M130 -225q-7 -5 -28 -5.5t-41.5 6t-33 21.5t-1.5 42q7 21 21.5 61.5t31.5 90.5t34.5 103t30 98.5t17.5 78t-2 41.5q-5 5 -15 5q0 15 7.5 19.5t19.5 3.5q28 -2 46 -15t27 -33.5t10 -46t-6 -52.5q-4 -19 -16 -54.5t-27.5 -79.5t-31 -91t-27.5 -87t-17 -69t1 -37zM287 461
q4 -14 0 -28t-9 -27.5t-8.5 -25t0.5 -20.5q1 -2 -14.5 -3t-34 2.5t-32.5 13.5t-9 30q3 14 7.5 28.5t8.5 26.5t5.5 21t-1.5 11q35 8 58.5 0.5t28.5 -29.5z" />
    <glyph glyph-name="cent" unicode="&#xa2;" horiz-adv-x="317" 
d="M126 528q21 0 29.5 -13.5t10.5 -33.5q29 -1 55.5 -15t34.5 -46q2 -12 1.5 -25t-5.5 -24.5t-15 -19t-26 -8.5q-8 -1 -13.5 1.5t-6.5 6.5q5 2 9 14t4 26q0 11 -3 18.5t-11 7.5q-10 0 -28 -21q-3 -41 -5.5 -85.5t-5.5 -88.5t-5.5 -85t-3.5 -75q21 21 43 54.5t43 70.5t39 72
t30 59q3 5 7 13.5t10 16t13 13t15 4.5q11 -2 11 -18q0 -5 -2 -13.5t-5 -14.5q-15 -32 -38 -79.5t-50 -95.5t-57.5 -87.5t-61.5 -54.5v-26q0 -7 0.5 -10t0.5 -5q-6 -2 -10 -2q-11 0 -17 10.5t-8 25.5q-46 1 -78 12.5t-52.5 32.5t-29.5 50.5t-9 64.5q0 53 16 104.5t42 95
t59.5 75.5t69.5 44q0 46 -5 54h8zM55 99q0 -29 11.5 -45.5t31.5 -17.5h5q0 5 0.5 8.5t0.5 7.5q1 10 2.5 38t4 66.5t4.5 83.5l4 90q-12 -24 -23.5 -52t-20.5 -58t-14.5 -60.5t-5.5 -60.5z" />
    <glyph glyph-name="sterling" unicode="&#xa3;" horiz-adv-x="735" 
d="M286 131q0 -2 -0.5 -3t-0.5 -2q45 -7 78 -19t61 -24.5t55.5 -23.5t63.5 -15q28 -3 43 0t22 8q8 5 9 13v15q5 1 14 1t12 -18q-21 -54 -68.5 -76.5t-109.5 -12.5q-32 5 -68 17t-72 25t-70.5 24t-62.5 14.5t-48 -3t-27 -29.5q-9 3 -14.5 13t-4 23.5t12.5 28.5t36 26
q7 3 14 5.5t14 4.5q3 5 5 10.5t4 11.5q13 38 27 82t29 92q-5 -2 -11 -3.5t-11 -3.5q-12 -6 -16.5 -13.5t-5 -14.5t2.5 -13t8 -9q1 -2 -2 -5.5t-6 -6.5q-2 3 -7 7t-11 9t-10.5 9.5t-4.5 7.5q-3 31 4 50t20.5 30t32 15t38.5 4q14 42 29 82.5t31.5 76t35 64.5t39.5 47
q33 31 76.5 45.5t81.5 8.5t64.5 -33.5t26.5 -81.5q0 -27 -7.5 -51.5t-18 -47.5t-22 -45t-20.5 -44q-53 12 -67.5 29.5t-8.5 41t23.5 53.5t27.5 67q9 29 6.5 46.5t-12.5 23t-25.5 -2.5t-33.5 -30q-15 -16 -30 -43.5t-30.5 -62t-31 -74t-29.5 -80.5q17 -3 38.5 -6.5t41 -5.5
t34.5 -1.5t20 5.5q-1 -7 -6 -17.5t-12 -21t-15 -19.5t-14 -13q-16 -11 -45.5 -4.5t-63.5 16.5q-17 -51 -32 -96.5t-26 -76.5z" />
    <glyph glyph-name="currency" unicode="&#xa4;" horiz-adv-x="677" 
d="M56 10q-30 21 -39.5 37t-6.5 28.5t14 23t22.5 20t19.5 19.5t5 22q-14 45 -12.5 102t16.5 116t42.5 116t64.5 101q-17 19 -26.5 33.5t-8.5 27.5t13 26t37 30q2 -3 10 -12t16 -19t14 -18.5t5 -9.5q28 20 58.5 32t64.5 12q36 0 71.5 -17t61.5 -55q14 14 31.5 31t38.5 39
q32 -23 41 -40t3 -32.5t-24.5 -30.5t-40.5 -34q-5 -5 -9.5 -9t-8.5 -9l1 -17.5t0.5 -48t-5 -71t-15.5 -87t-30.5 -95.5t-50.5 -96l10 -10t10 -9q9 -12 18.5 -23.5t11 -24.5t-9 -29t-41.5 -37q-17 22 -30.5 38t-25.5 31q-18 -17 -37.5 -26.5t-39.5 -13.5q-46 -8 -78.5 -1.5
t-54.5 18.5q-26 13 -43 34q-14 -13 -29 -28zM320 626q21 -11 22.5 -20.5t-18.5 -23.5q-21 -17 -41.5 -50t-39 -76t-33.5 -91t-23.5 -94.5t-9.5 -87.5t8 -69q9 -27 24 -43t34.5 -17.5t42.5 14t47 50.5q29 42 53 101t40.5 122.5t23.5 124.5t1 106q-5 35 -20.5 53.5t-35 24
t-40 -1t-35.5 -21.5v-1z" />
    <glyph glyph-name="yen" unicode="&#xa5;" horiz-adv-x="779" 
d="M107 321q-5 6 -13.5 14.5t-16.5 18.5t-15 20t-10 18q-11 39 -3.5 81t29 81t53.5 73t69.5 57t79 33t80.5 1q41 -10 67 -24t38 -33t12.5 -43t-9.5 -52q-17 -49 -37 -98.5t-38 -97.5t-32.5 -95t-20.5 -91q-7 -55 15 -62.5t57 37.5q22 30 44.5 67.5t44 79.5t41.5 86.5
t38 88.5l59 161q5 14 6.5 24t-0.5 15q0 3 21 1t44 -10.5t38.5 -23.5t4.5 -39q-10 -22 -24 -61.5t-30.5 -89.5t-34 -106.5t-34 -111.5t-30.5 -105.5t-24 -87.5q16 -2 33 -3.5t31.5 -1.5t25 1.5t13.5 6.5q-1 -8 -6 -19.5t-12 -23.5t-14.5 -22t-13.5 -14q-12 -9 -32 -8t-45 6
l-7 -33q18 -3 39 -5t40 -3t32.5 1t18.5 7q-1 -8 -6 -19.5t-12 -23t-14.5 -21.5t-13.5 -15q-16 -11 -41.5 -8t-57.5 11q-7 -40 -9.5 -73.5t0.5 -56.5q1 -4 -6 -5.5t-17.5 0.5t-24 7t-26.5 15q-33 23 -44.5 58t-4.5 70q-7 -1 -12.5 -3t-11.5 -5q-12 -7 -16.5 -15.5t-4 -16
t4.5 -13.5t9 -9q0 -2 -3.5 -6.5t-5.5 -6.5q-2 2 -8 6.5t-12.5 9.5t-12.5 9.5t-6 7.5q-5 35 3.5 56.5t23.5 33.5q-9 7 -18 13.5t-9 11.5q-5 42 7 65t34 33.5t49.5 12t53.5 0.5q3 10 6 22t6.5 29.5t8.5 43t13 62.5q-34 -62 -62.5 -101.5t-45.5 -40.5q-47 0 -79 15t-50 39.5
t-22.5 57.5t2.5 69q12 57 26 100t30 82.5t33 80.5t35 94q22 61 1.5 66t-75.5 -36q-37 -28 -71.5 -67t-57 -80t-28.5 -81t12 -69q10 -16 23.5 -26t24.5 -12l-2 -12q-8 -2 -21.5 1t-27.5 7.5t-25.5 9.5t-13.5 8zM424 -54q5 12 9.5 23.5t9.5 22.5q-38 3 -65 -11
q-20 -11 -21 -25.5t7 -22.5q13 6 28.5 9t31.5 4z" />
    <glyph glyph-name="brokenbar" unicode="&#xa6;" horiz-adv-x="281" 
d="M114 723q37 4 54.5 -13.5t23 -46t3.5 -62.5t-4 -62q-2 -27 -4 -58.5t-4.5 -64.5t-4.5 -66t-4 -63q-9 -6 -19.5 -3t-19 10.5t-15 17t-7.5 15.5q3 73 5.5 141.5t3.5 122.5t-1 89.5t-7 42.5zM91 -68q0 11 1.5 36.5t4 60.5t5 79t5.5 93q4 9 11.5 9.5t16.5 -4t17 -12.5t13 -16
q-5 -80 -8.5 -150.5t-5.5 -124t-2 -86t2 -36.5q-23 -9 -36 3t-19 35.5t-6.5 54t1.5 58.5z" />
    <glyph glyph-name="section" unicode="&#xa7;" horiz-adv-x="611" 
d="M446 191q-11 -30 -33 -52t-50 -35.5t-59 -18t-59 -0.5q13 -16 26 -30.5t21 -30t10 -34t-7 -42.5q-11 -32 -35 -54.5t-54 -35.5t-63 -16.5t-61 2.5q-22 4 -34 16t-16.5 27.5t-3.5 34.5t6 39q7 -14 32 -19t55 -2t58.5 12.5t43.5 24.5q22 21 18 37t-22 32t-43.5 34t-47 43
t-32.5 60.5t0 86.5q7 30 20.5 59.5t33 55.5t43 46.5t49.5 32.5q-1 20 5 49q9 40 29.5 77.5t49 67t62.5 47.5t71 18q14 0 35.5 -7.5t40.5 -22.5t31 -38t6 -54q-5 -27 -14.5 -52t-21 -50t-22 -50t-17.5 -53q-20 3 -37 7.5t-27.5 14.5t-12.5 27t9 44q17 45 37 83.5t28 68.5
q5 16 3 25t-8 11.5t-14.5 -1.5t-17.5 -13q-25 -26 -49 -62t-39.5 -75.5t-18 -80t16.5 -76.5q13 -25 31.5 -44t33 -38.5t20.5 -42t-6 -53.5zM199 190q15 -7 39.5 -8t50.5 3t49 13t36 22q23 22 17.5 39t-26 33.5t-47.5 36t-48 48.5q-15 -20 -28 -42.5t-23 -46.5t-15.5 -49
t-4.5 -49z" />
    <glyph glyph-name="dieresis" unicode="&#xa8;" horiz-adv-x="466" 
d="M59 553q-4 14 0 28t9 27.5t8.5 25t-0.5 20.5q-1 2 14.5 3t34 -2.5t32.5 -13.5t9 -30q-3 -14 -7.5 -28.5t-8.5 -26.5t-5.5 -21t1.5 -11q-35 -8 -58.5 -0.5t-28.5 29.5zM292 553q-4 14 0 28t9 27.5t8.5 25t-0.5 20.5q-1 2 14.5 3t34 -2.5t32.5 -13.5t9 -30
q-3 -14 -7.5 -28.5t-8.5 -26.5t-5.5 -21t1.5 -11q-35 -8 -58.5 -0.5t-28.5 29.5z" />
    <glyph glyph-name="copyright" unicode="&#xa9;" horiz-adv-x="750" 
d="M376 671q64 0 120 -24t98 -66t66 -98t24 -120q0 -63 -24 -119t-66 -98t-98 -66t-120 -24t-119.5 24t-97.5 66t-66 98t-24 119q0 64 24 120t66 98t97.5 66t119.5 24zM541 356q7 11 4.5 16t-7.5 5q-12 2 -18 -13q-7 -12 -18.5 -32.5t-25 -44.5t-28.5 -47.5t-28 -41.5
q-21 -30 -45.5 -40.5t-45 -4t-34 28.5t-12.5 57q1 36 12 81.5t28 90.5t37.5 84t40.5 61q12 16 24 21.5t19.5 1.5t9 -16.5t-6.5 -33.5q-16 -40 -33 -72t-23 -56t4 -40.5t48 -24.5q6 24 18 48.5l24 49t20.5 48t7.5 45.5q-2 39 -21 59t-46 24.5t-57 -6t-54 -32.5
q-30 -27 -57 -70.5t-45 -93.5t-24.5 -101t4.5 -92q10 -38 37 -62.5t60 -33t66 0.5t56 39q16 21 33 49.5t32 57t26.5 53t17.5 37.5zM578 565q-39 38 -90.5 61t-111.5 23t-111.5 -23t-90.5 -61q-38 -38 -60.5 -90t-22.5 -112t22.5 -111.5t60.5 -90.5q39 -38 90.5 -60.5
t111.5 -22.5t111.5 22.5t90.5 60.5q38 39 60.5 90.5t22.5 111.5t-22.5 112t-60.5 90z" />
    <glyph glyph-name="ordfeminine" unicode="&#xaa;" horiz-adv-x="368" 
d="M102 381q-32 6 -46 32t-14 61t13 73.5t35 69.5t52 48.5t65 11.5q20 -4 33 -12t22 -16q2 5 3.5 9t0.5 7q0 2 13 1t27 -6.5t23.5 -15t2.5 -24.5q-6 -14 -15.5 -37t-19 -48.5t-17.5 -51.5t-11 -46q-3 -16 -2 -25q1 -7 8.5 -10.5t12.5 -0.5q1 -2 8.5 -3.5t6.5 -3.5
q0 -10 -14 -15t-32 0q-34 7 -46.5 30t-10.5 52q-19 -35 -36 -60t-28 -25q-5 0 -15 1.5t-19 3.5zM253 625q-10 12 -25.5 15t-33.5 -10q-15 -11 -30 -39.5t-27.5 -62t-19.5 -65.5t-5 -50q1 -7 5.5 -10.5t11.5 1.5q8 6 24.5 31.5t34.5 59t36 69t29 61.5z" />
    <glyph glyph-name="guillemotleft" unicode="&#xab;" horiz-adv-x="676" 
d="M431 96q-29 33 -65.5 62t-66.5 64q-9 16 -11.5 34.5t-1.5 36t5 33t9 24.5q46 47 98 84t101 81q11 10 22.5 20t25 12t30 -9t38.5 -42q-29 -23 -62 -44.5l-66 -43t-64 -43.5t-56 -47q-2 -3 -3.5 -13t-2 -21.5t1 -22t5.5 -14.5q18 -20 44 -40.5t54.5 -41.5t58 -43t54.5 -46
q-23 -33 -41.5 -42.5t-36 -3t-34.5 25t-36 40.5zM241 87q-29 33 -58 66.5t-59 68.5q-9 16 -11.5 34.5t-1.5 36t5 33t9 24.5q46 47 92 94.5t95 91.5q11 10 22.5 20t25 12t30 -9t38.5 -42q-58 -47 -121.5 -98t-114.5 -101q-2 -3 -3.5 -13t-2 -21.5t1 -22t5.5 -14.5
q36 -41 87.5 -86.5t102.5 -93.5q-23 -33 -40.5 -42.5t-33.5 -3t-32.5 25t-35.5 40.5z" />
    <glyph glyph-name="logicalnot" unicode="&#xac;" horiz-adv-x="620" 
d="M465 294q0 13 0.5 34.5t2.5 47.5q-8 -4 -17.5 -5t-21.5 -1q-46 0 -77.5 1t-56 1.5t-45 1.5t-44.5 1t-54.5 -1t-75.5 -2q-2 31 6.5 45.5t23.5 19.5t34.5 4t40.5 -1l355 -4q-2 -32 -3 -56t-2 -50t-1 -59t1 -84q-31 -1 -45 8t-19 24t-3.5 34.5t1.5 40.5z" />
    <glyph glyph-name="registered" unicode="&#xae;" horiz-adv-x="743" 
d="M375 672q64 0 120 -24.5t98 -66.5t66.5 -98t24.5 -120q0 -65 -24.5 -121t-66.5 -98q-42 -43 -98 -67t-120 -24q-65 0 -121 24t-98 67q-43 42 -67 98t-24 121q0 64 24 120t67 98q42 42 98 66.5t121 24.5zM572 561q-38 39 -88.5 60.5t-108.5 21.5q-59 0 -110 -21.5
t-89 -60.5q-38 -38 -60 -88.5t-22 -109.5t22 -110t60 -90q38 -38 89 -59.5t110 -21.5q58 0 108.5 21.5t88.5 59.5q39 39 61 90t22 110t-22 109.5t-61 88.5zM404 332q10 -30 24.5 -59.5t33.5 -50.5t43.5 -30t54.5 1q4 1 16 21q12 -1 7 -12.5t-13 -20.5q-38 -30 -71.5 -28.5
t-62 22t-50.5 53t-36 65.5q-6 -20 -11 -39.5t-8 -35t-4 -26t2 -13.5q2 -2 7 -2t10 4q1 -3 2.5 -3.5t0.5 -2.5q-2 -2 -7 -9.5t-10 -7.5q-32 6 -42.5 28t-9 50.5t10 58.5t14.5 52l-5 54q5 -2 11 -2.5t11 -1.5q14 43 27 77t21 54q4 8 5.5 13.5t2.5 8.5q-31 -8 -61.5 -21.5
t-57 -30.5t-47.5 -38t-32 -45q-11 -23 -2.5 -32t23.5 -10l-2 -7q-5 -1 -13 -2.5t-16 0.5q-3 1 -8.5 6.5t-11.5 12.5t-11 14t-6 11q-5 15 0.5 31.5t16.5 33.5t25.5 32t28.5 27q26 21 59 37.5t67.5 26t69 11t64.5 -6.5q21 -6 38 -18.5t29 -29.5t17.5 -37.5t2.5 -42.5
q-3 -27 -17 -50.5t-34 -41.5t-45.5 -30t-50.5 -18zM391 397q45 8 77.5 32.5t45 51.5t2 49.5t-51.5 27.5q-17 2 -37.5 0t-43.5 -7q7 0 18.5 -3t21 -9t15 -14.5t-0.5 -19.5z" />
    <glyph glyph-name="macron" unicode="&#xaf;" horiz-adv-x="833" 
 />
    <glyph glyph-name="degree" unicode="&#xb0;" horiz-adv-x="427" 
d="M213 654q32 0 60 -12.5t49 -33.5q21 -20 33.5 -48.5t12.5 -60.5t-12.5 -60.5t-33.5 -49.5t-49 -33.5t-60 -12.5q-33 0 -61.5 12.5t-48.5 33.5q-22 21 -34 49.5t-12 60.5t12 60.5t34 48.5q20 21 48.5 33.5t61.5 12.5zM297 584q-16 16 -37 25t-45 9q-26 0 -47 -9t-37 -25
t-25 -37t-9 -46t9 -46t25 -38q16 -15 37 -24.5t47 -9.5q24 0 45 9.5t37 24.5q16 17 25.5 38t9.5 46t-9.5 46t-25.5 37z" />
    <glyph glyph-name="plusminus" unicode="&#xb1;" horiz-adv-x="586" 
d="M294 492q24 2 37.5 -1.5t19.5 -12.5t5.5 -21.5t-3.5 -28.5q-8 -32 -13.5 -57.5t-7.5 -43.5q51 -2 97.5 -2.5t69.5 2.5q8 -23 8 -36.5t-7 -21t-20 -9.5t-30 -2q-46 1 -79 1t-56 1q-5 -16 -8.5 -28t-7 -27.5t-8 -38.5t-10.5 -61q-32 7 -46 15.5t-16.5 20t2 27.5t9.5 38
q2 11 5.5 24.5t8.5 31.5q-31 0 -69 -0.5t-102 -2.5q-3 33 5.5 48t24 20.5t36.5 4.5t43 -1q14 1 33.5 0.5t43.5 -1.5q13 48 23 93.5t12 68.5zM476 78q7 -21 6.5 -34t-7 -20t-19 -9.5t-27.5 -2.5q-46 0 -77.5 1t-56 1.5t-45 1.5t-44.5 1t-54.5 -1t-75.5 -2q-2 31 6.5 45.5
t23.5 19.5t34.5 4t40.5 -1q22 0 63.5 -1t87 -2t85.5 -2t59 1z" />
    <glyph glyph-name="twosuperior" unicode="&#xb2;" horiz-adv-x="279" 
d="M31 428q19 16 42.5 37t46.5 44t43 47t33 47q16 27 15 42.5t-12 19.5t-28 -2t-33.5 -21.5t-29.5 -39.5t-14 -56q1 -13 8.5 -15t11.5 -3l-4 -10q-16 1 -26.5 3.5t-15.5 4.5t-12.5 17.5t-7.5 26.5q2 39 18 65.5t38.5 40.5t48.5 17t48 -5q8 -3 19.5 -13.5t19.5 -23.5
q14 -21 9.5 -43t-18.5 -43q-20 -30 -55 -69.5t-76 -74.5q18 2 32.5 1t26.5 -2.5t22.5 -1t20.5 5.5q7 3 3 11q2 5 6.5 3.5t5.5 -4.5l2 -10q4 -26 -8.5 -39.5t-29.5 -14.5q-15 0 -22.5 2.5t-13.5 6t-13 6.5t-21 4q-5 0 -13.5 -0.5t-17.5 -2t-17 -3.5t-11 -5q-8 -2 -16.5 5.5
t-12.5 14.5t-3 14.5t11 15.5z" />
    <glyph glyph-name="threesuperior" unicode="&#xb3;" horiz-adv-x="250" 
d="M178 426q-17 -35 -49 -49t-60.5 -11t-42.5 21.5t6 49.5q3 -18 18 -23.5t34 -3t37.5 10.5t28.5 18q9 9 14.5 18.5t5.5 18t-5.5 14.5t-19.5 7q-7 -2 -12 -3t-11 1q-8 4 -17.5 11t-10.5 14q21 21 40 39t38 41q17 21 20.5 35.5t-2.5 21.5t-19.5 7.5t-28.5 -5.5
q-27 -12 -47.5 -38t-20.5 -59q0 -13 5.5 -15.5t9.5 -3.5l-5 -9q-16 2 -24.5 4t-14.5 5q-2 1 -5.5 6t-6.5 12t-5 15t-1 14q6 39 30.5 64.5t54.5 34.5t60 0.5t47 -36.5q12 -21 8.5 -39.5t-15 -35t-27.5 -31t-28 -27.5q15 -6 22 -17t8.5 -24t-1 -27t-8.5 -26z" />
    <glyph glyph-name="acute" unicode="&#xb4;" horiz-adv-x="281" 
d="M50 536q10 9 15 21t9 28t9.5 36t15.5 43q6 14 17 21t22 9.5t20 2t11 -1.5q18 -1 29.5 -14t13.5 -49q1 -3 -4.5 -4.5t-14 -3t-17 -4t-11.5 -7.5q-15 -22 -27.5 -40t-25.5 -29t-28 -14t-34 6z" />
    <glyph glyph-name="mu" unicode="&#xb5;" horiz-adv-x="446" 
d="M46 59q-9 -33 -16.5 -63t-11.5 -53t-5 -38.5t3 -19.5q6 -4 12 -4q0 -14 -9 -19.5t-19 -3.5q-26 3 -41 16t-23 32t-10 42t0 47q2 29 13 72.5t26 93t31 100t28.5 94t18 74.5t0.5 42q4 3 16 4t27 0t30.5 -5.5t27 -12t16 -19.5t-1.5 -28q-5 -12 -13 -35t-18.5 -54.5
t-22.5 -68.5t-24 -76q-5 -23 -8 -41.5t-2 -31.5q2 -10 9 -15t16 1t24 27.5t33 51.5t37.5 65.5t37.5 71t33 68t24 55.5q2 7 7.5 20.5t4.5 24.5q0 2 9 2t22 -2.5t27.5 -7.5t25.5 -13t15.5 -19t-2.5 -25q-21 -47 -37 -92t-30 -90t-28 -89.5t-31 -90.5q-25 5 -39 17t-21 29
t-8.5 37t0.5 41q-27 -51 -51.5 -85.5t-41.5 -35.5q-8 -1 -21.5 1t-27.5 6z" />
    <glyph glyph-name="paragraph" unicode="&#xb6;" horiz-adv-x="659" 
d="M576 660q7 -21 6.5 -34t-7 -20t-19 -9.5t-27.5 -2.5h-14q5 -23 2.5 -49.5t-4.5 -51.5q-5 -69 -11 -144.5t-11 -149.5t-9.5 -141.5t-7 -119.5t-3 -84.5t1.5 -36.5q-23 -9 -36.5 2.5t-20 33.5t-7 50.5t1.5 55.5q1 16 4.5 59t7.5 101t8.5 125.5t7.5 133t4.5 122.5t-0.5 95
q-32 1 -53 2t-42 1q4 -25 1.5 -53t-4.5 -52q-5 -69 -11 -144.5t-11 -149.5t-9.5 -141.5t-7 -119.5t-3 -84.5t1.5 -36.5q-23 -9 -36.5 2.5t-20 33.5t-7 50.5t1.5 55.5q2 26 8.5 105t12.5 197q-52 -3 -91 13t-64 44t-37 64.5t-9.5 74.5t18.5 75t46 66t74.5 46.5t102.5 17.5
q22 0 60.5 -0.5t79 -1.5t77 -1.5t55.5 1.5z" />
    <glyph glyph-name="periodcentered" unicode="&#xb7;" horiz-adv-x="233" 
d="M59 293q-4 14 0 28t9 27.5t8.5 25t-0.5 20.5q-1 2 14.5 3t34 -2.5t32.5 -13.5t9 -30q-3 -14 -7.5 -28.5t-8.5 -26.5t-5.5 -21t1.5 -11q-35 -8 -58.5 -0.5t-28.5 29.5z" />
    <glyph glyph-name="cedilla" unicode="&#xb8;" horiz-adv-x="315" 
d="M78 -149v7v10.5t1 9.5t5 4q3 0 13.5 -7t23 -14t25 -10.5t19.5 3.5q4 3 8 11t6 17.5t0.5 19.5t-8.5 17q-3 3 -10.5 6t-16 6.5t-16 7t-9.5 5.5q-5 4 -6 10.5t-0.5 13.5t3 14t4.5 11q4 9 9 12t11 2.5t13 -3t15 -3.5q9 -1 7.5 -8t-5 -15.5t-5 -15.5t7.5 -9q25 -6 39 -19
t19 -28.5t2 -31t-12 -26.5q-14 -19 -32.5 -26.5t-37.5 -6.5t-38 10.5t-35 25.5z" />
    <glyph glyph-name="onesuperior" unicode="&#xb9;" horiz-adv-x="168" 
d="M143 660q-4 -8 -11.5 -30t-17 -50t-19 -59t-16.5 -57.5t-10.5 -45.5t-0.5 -22q4 -6 12 1q2 -2 3 -2t-1 -2t-4.5 -7t-6.5 -5q-29 2 -40.5 23t-5.5 47q5 22 13 49t17 55t18 54.5t15 46.5q1 3 -2.5 0t-9.5 -6t-12.5 -3t-10.5 8q6 13 21.5 25t29.5 11q6 0 14 -2t15 -5.5
t10.5 -9.5t-0.5 -14z" />
    <glyph glyph-name="ordmasculine" unicode="&#xba;" horiz-adv-x="278" 
d="M24 485q0 28 8.5 61t24 62t37.5 49t50 23q15 2 26.5 -2t19 -10.5t10.5 -14t3 -11.5q-1 17 -9 31.5t-20 16.5q8 16 23.5 21t28.5 -11t18 -43.5t2.5 -61t-12 -68t-25 -64.5t-36.5 -51.5t-46 -26.5q-42 -9 -72.5 17t-30.5 78v5zM206 614q-3 -11 -9 -15.5t-12 -5.5t-11 1.5
t-6 5.5q4 2 7 14t1 20.5t-10 6.5t-25 -28q-10 -16 -20 -39t-17.5 -48.5t-12 -50.5t-2.5 -45q2 -17 10 -25t24 2q15 9 29.5 32t26.5 52t19.5 61.5t7.5 61.5z" />
    <glyph glyph-name="guillemotright" unicode="&#xbb;" horiz-adv-x="680" 
d="M285 483q29 -33 65.5 -62t66.5 -64q9 -16 11.5 -34.5t1.5 -36t-5 -33t-9 -24.5q-46 -47 -98 -84t-101 -81q-11 -10 -22.5 -20t-25 -12t-30 8.5t-38.5 42.5q29 23 62 44.5l66 43t64 43.5t56 47q2 3 3.5 13t2 21.5t-1 22t-5.5 14.5q-18 20 -44 40.5t-54.5 41.5t-58 43
t-54.5 46q23 33 41.5 42.5t36 3t34 -25t36.5 -40.5zM475 492q29 -33 58 -66.5t59 -68.5q9 -16 11.5 -34.5t1.5 -36t-5 -33t-9 -24.5q-46 -47 -92 -94.5t-95 -91.5q-11 -10 -22.5 -20t-25 -12t-30 8.5t-38.5 42.5q58 47 121.5 98t114.5 101q2 3 3.5 13t2 21.5t-1 22
t-5.5 14.5q-36 41 -87.5 86.5t-102.5 93.5q23 33 40.5 42.5t33.5 3t32 -25t36 -40.5z" />
    <glyph glyph-name="onequarter" unicode="&#xbc;" 
d="M185 658q-4 -9 -12 -32.5t-18 -54t-20.5 -63.5t-18 -61.5t-11 -48.5t-0.5 -24q4 -5 13 1q2 -2 3 -2t-1 -2t-5 -7.5t-7 -5.5q-31 2 -43.5 25t-5.5 50q6 24 14.5 53t18 59t18.5 58.5t16 49.5q1 3 -3 0t-10 -6t-13 -3.5t-11 8.5q6 14 23 27t31 12q6 0 15 -2t16.5 -6t11 -10
t-0.5 -15zM367 677q24 -5 32 -11.5t6.5 -16.5t-10 -22.5t-17.5 -29.5q-42 -77 -84 -150t-83 -145t-81 -144.5t-79 -148.5q-23 9 -27 24.5t2.5 35t20.5 41.5t26 45q9 16 32.5 57t54 94t64.5 112t64 111.5t51.5 92.5t27.5 55zM387 332q23 3 40 -1q14 -3 23 -13t1 -31
q-8 -19 -20 -55.5t-25 -76.5q3 0 7.5 -4t5.5 -8q3 -25 -7 -38.5t-26 -17.5q-8 -29 -12.5 -49.5t-0.5 -24.5q2 -2 5.5 -2.5t7.5 3.5q2 -2 3.5 -2.5t-0.5 -2.5t-5 -7t-8 -5q-31 2 -45 21t-5 54l5 20q-27 5 -54.5 7.5t-41.5 -7.5q-8 -2 -16.5 6t-13.5 15q-4 8 -3 16t11 17
q21 17 45 36.5t47 40.5t43.5 44t34.5 47q5 7 5 16zM377 238q-19 -26 -41.5 -52t-48.5 -48q6 1 22 -0.5t35 -1.5q8 26 16.5 52t16.5 50z" />
    <glyph glyph-name="onehalf" unicode="&#xbd;" horiz-adv-x="505" 
d="M185 658q-4 -9 -12 -32.5t-18 -54t-20.5 -63.5t-18 -61.5t-11 -48.5t-0.5 -24q4 -5 13 1q2 -2 3 -2t-1 -2t-5 -7.5t-7 -5.5q-31 2 -43.5 25t-5.5 50q6 24 14.5 53t18 59t18.5 58.5t16 49.5q1 3 -3 0t-10 -6t-13 -3.5t-11 8.5q6 14 23 27t31 12q6 0 15 -2t16.5 -6t11 -10
t-0.5 -15zM367 677q24 -5 32 -11.5t6.5 -16.5t-10 -22.5t-17.5 -29.5q-42 -77 -84 -150t-83 -145t-81 -144.5t-79 -148.5q-23 9 -27 24.5t2.5 35t20.5 41.5t26 45q9 16 32.5 57t54 94t64.5 112t64 111.5t51.5 92.5t27.5 55zM223 63q21 17 46 39t49.5 47t46.5 50.5t36 50.5
q16 29 15 45t-13 20.5t-30 -2t-36 -23t-31.5 -42.5t-14.5 -60q1 -13 9 -15.5t12 -3.5l-4 -10q-17 1 -28 3.5t-17 4.5q-2 1 -6 6.5t-7.5 12.5t-5.5 15t-2 14q2 42 19 70t41 43t52 18t51 -6q9 -3 21 -14t22 -25q15 -23 10 -46t-20 -46q-11 -16 -26 -35t-33.5 -39.5t-39 -40.5
t-42.5 -39q19 2 34.5 1t29 -2.5t24.5 -1t22 5.5q4 3 4 6t-1 6q2 5 7 4t6 -5l2 -11q4 -28 -9.5 -42t-31.5 -15q-16 -1 -24 2t-14.5 6.5t-14 7t-22.5 3.5q-5 0 -14 -0.5t-18.5 -1.5t-18.5 -3.5t-12 -5.5q-9 -2 -18 6t-13 15q-4 8 -3 16.5t11 16.5z" />
    <glyph glyph-name="threequarters" unicode="&#xbe;" horiz-adv-x="451" 
d="M367 677q-6 -15 -27.5 -55t-51.5 -92.5t-64 -111.5t-64.5 -112t-54 -94t-32.5 -57q-12 -23 -26 -45t-20.5 -41.5t-2.5 -35t27 -24.5q39 76 79 148.5t81 144.5t83 145t84 150q9 17 17.5 29.5t10 22.5t-6.5 16.5t-32 11.5zM344 332l1 -2q0 -9 -5 -16q-14 -24 -34.5 -47
t-43.5 -44t-47 -40.5t-45 -36.5q-10 -9 -11 -17t3 -16q5 -7 13.5 -15t16.5 -6q14 10 41.5 7.5t54.5 -7.5l-5 -20q-9 -35 5 -54t45 -21q5 0 8 5t5 7t0.5 2.5t-3.5 2.5q-4 -4 -7.5 -3.5t-5.5 2.5q-4 4 0.5 24.5t12.5 49.5q16 4 26 17.5t7 38.5q-1 4 -5.5 8t-7.5 4
q13 40 25 76.5t20 55.5q8 21 -1 31t-23 13q-17 4 -40 1zM334 238q-8 -24 -16.5 -50t-16.5 -52q-19 0 -35 1.5t-22 0.5q26 22 48.5 48t41.5 52zM184 411q-11 -24 -30.5 -38t-40.5 -19.5t-41.5 -3.5t-33 11.5t-15.5 25t11 36.5q3 -18 19 -24t35.5 -3.5t38.5 11t29 18.5
q9 9 14.5 19t5.5 18.5t-6 14.5t-20 7q-6 -2 -11.5 -3t-11.5 1q-9 4 -18.5 11.5t-10.5 14.5q22 21 41 39.5t39 41.5q18 22 21 36.5t-3 22t-19 7.5t-29 -6q-28 -11 -49 -37.5t-21 -61.5q0 -13 5 -15.5t10 -3.5l-5 -9q-17 2 -25.5 4t-14.5 4q-2 1 -5.5 6.5t-7 13t-5.5 15.5
t-1 14q6 40 31.5 66t56.5 35.5t61.5 1t47.5 -37.5q13 -22 9.5 -41t-15.5 -35.5t-28.5 -31.5t-28.5 -28q15 -7 22.5 -18t9 -24.5t-1.5 -28t-9 -26.5z" />
    <glyph glyph-name="questiondown" unicode="&#xbf;" horiz-adv-x="563" 
d="M174 -20q-29 -43 -33 -74.5t7.5 -51t34.5 -27t49 -2.5q41 7 74.5 31t58.5 59.5t39 79.5t16 91q-1 14 -6.5 21.5t-12.5 11.5t-14 5t-11 2l8 23q35 -2 59 -8t37 -11q5 -2 13 -13.5t15.5 -26.5t12.5 -32t3 -29q-11 -81 -50.5 -136t-90.5 -85.5t-105.5 -38t-94.5 5.5
q-20 6 -45 30t-45 53q-32 48 -22 97.5t41 96.5q33 49 72.5 94t74.5 84t58 72t23 59q21 -8 33.5 -20t18.5 -25.5t7 -28t-1 -27.5q-3 -18 -16.5 -39.5t-34 -46t-45.5 -50.5t-49 -51t-45 -49t-34 -44zM458 462q4 -14 0 -28t-9 -27.5t-8.5 -25t0.5 -20.5q1 -2 -14.5 -3t-34 2.5
t-32.5 13.5t-9 30q3 14 7.5 28.5t8.5 26.5t5.5 21t-1.5 11q35 8 58.5 0.5t28.5 -29.5z" />
    <glyph glyph-name="Agrave" unicode="&#xc0;" horiz-adv-x="487" 
d="M486 728q-12 -5 -19 -5q-17 0 -30 17t-30 41q-2 3 -7.5 4.5l-11 3t-9.5 2t-4 2.5q0 26 9.5 35t22.5 9q5 0 18.5 -7t21.5 -24q14 -32 19.5 -49t19.5 -29zM360 721q5 2 16 2.5t20 0.5q15 0 33.5 -3t34 -9t26 -16t10.5 -25q0 -9 -5 -21q-29 -60 -61 -130.5t-63 -146.5
q10 2 17.5 5.5t10.5 11.5q1 -5 1.5 -9.5t0.5 -9.5q0 -27 -13 -50.5t-49 -34.5q-8 -22 -16.5 -47.5t-16 -50.5t-13.5 -48t-9 -40q-1 -6 -2 -15t0.5 -17t6 -14t13.5 -7q8 -1 21 14.5t29 40.5t32.5 56t32.5 61t29 56.5t21 42.5q24 48 45 47q8 -1 10.5 -13.5t-6.5 -32.5
q-11 -23 -26.5 -55.5t-33.5 -68.5t-37 -71t-37.5 -63.5t-34.5 -45.5t-28 -17q-46 1 -75 14t-45.5 32.5t-22 44t-3.5 48.5q2 35 12.5 69.5t22.5 69.5h-69h-31q-44 -66 -84 -124t-79.5 -100.5t-79.5 -67.5t-85 -25q-23 0 -46 7.5t-42 21.5t-30.5 33t-9.5 43q0 11 2.5 22
t5.5 24q23 -1 23 -13q0 -3 -0.5 -6.5t-0.5 -8.5q0 -17 17.5 -31t52.5 -14q27 0 57 14.5t61.5 40.5t64.5 60.5t67 75.5q4 6 1 13t-8 13.5t-10.5 11t-5.5 5.5q0 45 37.5 67t94.5 27l238 315q5 8 9 15t4 15q0 3 -2 11zM245 367q18 37 42 84t45.5 90.5t36 76t14.5 39.5q0 2 -1 2
q-54 -69 -107.5 -145t-105.5 -148q20 1 39 1h37z" />
    <glyph glyph-name="Aacute" unicode="&#xc1;" horiz-adv-x="487" 
d="M327 735q14 12 19.5 29t19.5 49q8 17 21.5 24t18.5 7q13 0 22.5 -9t9.5 -35q0 -2 -4 -2.5t-9.5 -2l-11 -3t-7.5 -4.5q-17 -24 -30 -41t-30 -17q-7 0 -19 5zM360 721q5 2 16 2.5t20 0.5q15 0 33.5 -3t34 -9t26 -16t10.5 -25q0 -9 -5 -21q-29 -60 -61 -130.5t-63 -146.5
q10 2 17.5 5.5t10.5 11.5q1 -5 1.5 -9.5t0.5 -9.5q0 -27 -13 -50.5t-49 -34.5q-8 -22 -16.5 -47.5t-16 -50.5t-13.5 -48t-9 -40q-1 -6 -2 -15t0.5 -17t6 -14t13.5 -7q8 -1 21 14.5t29 40.5t32.5 56t32.5 61t29 56.5t21 42.5q24 48 45 47q8 -1 10.5 -13.5t-6.5 -32.5
q-11 -23 -26.5 -55.5t-33.5 -68.5t-37 -71t-37.5 -63.5t-34.5 -45.5t-28 -17q-46 1 -75 14t-45.5 32.5t-22 44t-3.5 48.5q2 35 12.5 69.5t22.5 69.5h-69h-31q-44 -66 -84 -124t-79.5 -100.5t-79.5 -67.5t-85 -25q-23 0 -46 7.5t-42 21.5t-30.5 33t-9.5 43q0 11 2.5 22
t5.5 24q23 -1 23 -13q0 -3 -0.5 -6.5t-0.5 -8.5q0 -17 17.5 -31t52.5 -14q27 0 57 14.5t61.5 40.5t64.5 60.5t67 75.5q4 6 1 13t-8 13.5t-10.5 11t-5.5 5.5q0 45 37.5 67t94.5 27l238 315q5 8 9 15t4 15q0 3 -2 11zM245 367q18 37 42 84t45.5 90.5t36 76t14.5 39.5q0 2 -1 2
q-54 -69 -107.5 -145t-105.5 -148q20 1 39 1h37z" />
    <glyph glyph-name="Acircumflex" unicode="&#xc2;" horiz-adv-x="487" 
d="M338 788q16 17 35 27t33 21q8 6 10 13t7 10q5 4 9 2.5t7 -3.5q3 -4 4 -8.5t6 -9.5q6 -8 16 -15l20 -14t18.5 -13t12.5 -11q22 -28 -20 -56q0 20 -9.5 29.5t-22 15.5t-23.5 13t-14 22q-6 -16 -19.5 -24.5t-26.5 -15t-22.5 -15t-7.5 -25.5q-23 17 -25 29.5t12 27.5z
M360 721q5 2 16 2.5t20 0.5q15 0 33.5 -3t34 -9t26 -16t10.5 -25q0 -9 -5 -21q-29 -60 -61 -130.5t-63 -146.5q10 2 17.5 5.5t10.5 11.5q1 -5 1.5 -9.5t0.5 -9.5q0 -27 -13 -50.5t-49 -34.5q-8 -22 -16.5 -47.5t-16 -50.5t-13.5 -48t-9 -40q-1 -6 -2 -15t0.5 -17t6 -14
t13.5 -7q8 -1 21 14.5t29 40.5t32.5 56t32.5 61t29 56.5t21 42.5q24 48 45 47q8 -1 10.5 -13.5t-6.5 -32.5q-11 -23 -26.5 -55.5t-33.5 -68.5t-37 -71t-37.5 -63.5t-34.5 -45.5t-28 -17q-46 1 -75 14t-45.5 32.5t-22 44t-3.5 48.5q2 35 12.5 69.5t22.5 69.5h-69h-31
q-44 -66 -84 -124t-79.5 -100.5t-79.5 -67.5t-85 -25q-23 0 -46 7.5t-42 21.5t-30.5 33t-9.5 43q0 11 2.5 22t5.5 24q23 -1 23 -13q0 -3 -0.5 -6.5t-0.5 -8.5q0 -17 17.5 -31t52.5 -14q27 0 57 14.5t61.5 40.5t64.5 60.5t67 75.5q4 6 1 13t-8 13.5t-10.5 11t-5.5 5.5
q0 45 37.5 67t94.5 27l238 315q5 8 9 15t4 15q0 3 -2 11zM245 367q18 37 42 84t45.5 90.5t36 76t14.5 39.5q0 2 -1 2q-54 -69 -107.5 -145t-105.5 -148q20 1 39 1h37z" />
    <glyph glyph-name="Atilde" unicode="&#xc3;" horiz-adv-x="487" 
d="M509 802q3 -40 -11 -57.5t-37 -18.5q-17 -1 -32 3.5t-30 11.5t-29.5 15t-29.5 14q-14 5 -29 -1.5t-13 -28.5q0 -2 -5 -1t-7 6q-3 25 7 42.5t29 23.5q15 4 33 -2t37.5 -15.5t39.5 -18.5t38 -10q10 -1 15 3t7.5 9.5t2.5 12t2 10.5q1 2 4 3q5 2 8 -1zM360 721q5 2 16 2.5
t20 0.5q15 0 33.5 -3t34 -9t26 -16t10.5 -25q0 -9 -5 -21q-29 -60 -61 -130.5t-63 -146.5q10 2 17.5 5.5t10.5 11.5q1 -5 1.5 -9.5t0.5 -9.5q0 -27 -13 -50.5t-49 -34.5q-8 -22 -16.5 -47.5t-16 -50.5t-13.5 -48t-9 -40q-1 -6 -2 -15t0.5 -17t6 -14t13.5 -7q8 -1 21 14.5
t29 40.5t32.5 56t32.5 61t29 56.5t21 42.5q24 48 45 47q8 -1 10.5 -13.5t-6.5 -32.5q-11 -23 -26.5 -55.5t-33.5 -68.5t-37 -71t-37.5 -63.5t-34.5 -45.5t-28 -17q-46 1 -75 14t-45.5 32.5t-22 44t-3.5 48.5q2 35 12.5 69.5t22.5 69.5h-69h-31q-44 -66 -84 -124
t-79.5 -100.5t-79.5 -67.5t-85 -25q-23 0 -46 7.5t-42 21.5t-30.5 33t-9.5 43q0 11 2.5 22t5.5 24q23 -1 23 -13q0 -3 -0.5 -6.5t-0.5 -8.5q0 -17 17.5 -31t52.5 -14q27 0 57 14.5t61.5 40.5t64.5 60.5t67 75.5q4 6 1 13t-8 13.5t-10.5 11t-5.5 5.5q0 45 37.5 67t94.5 27
l238 315q5 8 9 15t4 15q0 3 -2 11zM245 367q18 37 42 84t45.5 90.5t36 76t14.5 39.5q0 2 -1 2q-54 -69 -107.5 -145t-105.5 -148q20 1 39 1h37z" />
    <glyph glyph-name="Adieresis" unicode="&#xc4;" horiz-adv-x="487" 
d="M342 754q-3 9 -0.5 18.5t6 18.5t6 16.5t-0.5 13.5q-1 1 9.5 2t22.5 -1.5t21.5 -9t6.5 -19.5q-2 -9 -5.5 -19t-5.5 -18t-3 -13.5t1 -6.5q-23 -6 -39 -1t-19 19zM440 754q-2 9 0.5 18.5t5.5 18.5l5.5 16.5t-0.5 13.5q-1 1 9.5 2t22.5 -1.5t21 -9t6 -19.5q-2 -9 -5 -19
t-5.5 -18t-3.5 -13.5t1 -6.5q-23 -6 -38 -1t-19 19zM360 721q5 2 16 2.5t20 0.5q15 0 33.5 -3t34 -9t26 -16t10.5 -25q0 -9 -5 -21q-29 -60 -61 -130.5t-63 -146.5q10 2 17.5 5.5t10.5 11.5q1 -5 1.5 -9.5t0.5 -9.5q0 -27 -13 -50.5t-49 -34.5q-8 -22 -16.5 -47.5t-16 -50.5
t-13.5 -48t-9 -40q-1 -6 -2 -15t0.5 -17t6 -14t13.5 -7q8 -1 21 14.5t29 40.5t32.5 56t32.5 61t29 56.5t21 42.5q24 48 45 47q8 -1 10.5 -13.5t-6.5 -32.5q-11 -23 -26.5 -55.5t-33.5 -68.5t-37 -71t-37.5 -63.5t-34.5 -45.5t-28 -17q-46 1 -75 14t-45.5 32.5t-22 44
t-3.5 48.5q2 35 12.5 69.5t22.5 69.5h-69h-31q-44 -66 -84 -124t-79.5 -100.5t-79.5 -67.5t-85 -25q-23 0 -46 7.5t-42 21.5t-30.5 33t-9.5 43q0 11 2.5 22t5.5 24q23 -1 23 -13q0 -3 -0.5 -6.5t-0.5 -8.5q0 -17 17.5 -31t52.5 -14q27 0 57 14.5t61.5 40.5t64.5 60.5
t67 75.5q4 6 1 13t-8 13.5t-10.5 11t-5.5 5.5q0 45 37.5 67t94.5 27l238 315q5 8 9 15t4 15q0 3 -2 11zM245 367q18 37 42 84t45.5 90.5t36 76t14.5 39.5q0 2 -1 2q-54 -69 -107.5 -145t-105.5 -148q20 1 39 1h37z" />
    <glyph glyph-name="Aring" unicode="&#xc5;" horiz-adv-x="487" 
d="M353 822q7 0 18.5 -7.5t11.5 -12.5q23 0 38 -16t11 -37q-2 -8 -4 -15t-4 -13q28 -4 52 -16t24 -34q0 -9 -5 -21q-29 -60 -61 -130.5t-63 -146.5q10 2 17.5 5.5t10.5 11.5q1 -5 1.5 -9.5t0.5 -9.5q0 -27 -13 -50.5t-49 -34.5q-8 -22 -16.5 -47.5t-16 -50.5t-13.5 -48
t-9 -40q-1 -6 -2 -15t0.5 -17t6 -14t13.5 -7q8 -1 21 14.5t29 40.5t32.5 56t32.5 61t29 56.5t21 42.5q24 48 45 47q8 -1 10.5 -13.5t-6.5 -32.5q-11 -23 -26.5 -55.5t-33.5 -68.5t-37 -71t-37.5 -63.5t-34.5 -45.5t-28 -17q-46 1 -75 14t-45.5 32.5t-22 44t-3.5 48.5
q2 35 12.5 69.5t22.5 69.5h-100q-44 -66 -84 -124t-79.5 -100.5t-79.5 -67.5t-85 -25q-23 0 -46 7.5t-42 21.5t-30.5 33t-9.5 43q0 11 2.5 22t5.5 24q23 -1 23 -13q0 -3 -0.5 -6.5t-0.5 -8.5q0 -17 17.5 -31t52.5 -14q27 0 57 14.5t61.5 40.5t64.5 60.5t67 75.5q4 6 1 13
t-8 13.5t-10.5 11t-5.5 5.5q0 45 37.5 67t94.5 27l237 313q-23 5 -42.5 20.5t-20.5 41.5q0 18 7.5 33t18 26t22.5 17t20 6zM245 367q18 37 42 84t45.5 90.5t36 76t14.5 39.5q0 2 -1 2q-54 -69 -107.5 -145t-105.5 -148q20 1 39 1h37zM360 721q4 2 13.5 2.5t18.5 0.5
q5 9 7.5 19t4.5 19q1 7 -4.5 15t-14 13.5t-18 7t-16.5 -5.5q-14 -14 -24 -31t-12 -32t4.5 -25t25.5 -10q9 0 13 1q4 10 4 15q0 3 -2 11z" />
    <glyph glyph-name="AE" unicode="&#xc6;" horiz-adv-x="967" 
d="M882 617q4 15 4 28q0 17 -7.5 24.5t-18.5 7.5q-20 0 -48.5 -27t-54 -67t-43.5 -86t-18 -84q0 -24 11.5 -40t39.5 -18q8 -2 19.5 -3.5t11.5 -11.5q0 -5 -2 -11t-4 -11q-5 1 -15 1q-31 0 -59 -21t-49.5 -53.5t-34 -71t-12.5 -73.5q0 -39 20.5 -69t64.5 -30t81.5 32
t69.5 79.5t59 103t51 102.5l6 12t9.5 16t13 13.5t16.5 5.5q2 0 6.5 -3.5t4.5 -11.5q0 -3 -1 -11t-6 -20q-14 -32 -30.5 -71t-37.5 -79.5t-46 -78.5t-55.5 -67.5t-66.5 -47.5t-79 -18t-76.5 13t-57.5 33q-32 6 -52.5 20t-31.5 32.5t-15 39.5t-2 42q2 35 12.5 69.5t22.5 69.5
h-100q-44 -66 -84 -124t-79.5 -100.5t-79.5 -67.5t-85 -25q-23 0 -46 7.5t-42 21.5t-30.5 33t-9.5 43q0 11 2.5 22t5.5 24q23 -1 23 -13q0 -3 -0.5 -6.5t-0.5 -8.5q0 -17 17.5 -31t52.5 -14q27 0 57 14.5t61.5 40.5t64.5 60.5t67 75.5q4 6 1 13t-8 13.5t-10.5 11t-5.5 5.5
q0 45 37.5 67t94.5 27l238 315q5 8 9 15t4 15q0 3 -2 11q5 2 16 2.5t20 0.5q19 0 42 -4.5t40 -14.5q19 8 39 13t42 5q28 0 53.5 -8.5t44.5 -25t30 -41.5t11 -58q0 -27 -8 -52.5t-19 -48.5t-23 -45t-20 -42q-49 4 -67.5 17.5t-18.5 33.5q0 16 8 35t19 40t22 43.5t17 45.5z
M519 367q18 37 42 84t45.5 90.5t36 76t14.5 39.5q0 2 -1 2q-54 -69 -107.5 -145t-105.5 -148q20 1 39 1h37z" />
    <glyph glyph-name="Ccedilla" unicode="&#xc7;" horiz-adv-x="483" 
d="M512 319q-10 -21 -25.5 -57.5t-36 -77.5t-45 -82.5t-51.5 -72.5q-35 -40 -77 -56t-84 -12q2 -6 7 -7q23 -6 35.5 -17.5t17 -25.5t1.5 -28t-11 -24q-13 -17 -29.5 -24.5t-34 -6t-35 10t-31.5 23.5v6.5v9.5t1 8.5t5 3.5q3 0 12.5 -6.5t20.5 -12.5t22.5 -9.5t17.5 2.5
q4 3 7.5 10t5.5 16t0.5 18t-7.5 15q-3 3 -10 6t-14.5 6t-14.5 6t-9 5q-5 4 -6 11t1 14q-30 11 -57 32t-46.5 50.5t-31 67t-11.5 81.5q0 61 16.5 127.5t44 129t63 116t73.5 88.5q32 29 70.5 44.5t76.5 15.5q25 0 47 -7.5t39.5 -23t28 -40t12.5 -57.5q0 -35 -13 -71t-31 -73.5
l-36 -75t-28 -74.5q-47 10 -65.5 27.5t-18.5 43.5q0 19 8.5 43t22 52.5t29 61t30.5 69.5q10 26 10 46q0 32 -25 32q-20 0 -45 -25.5t-51 -68t-51 -97.5t-44.5 -113t-31.5 -115.5t-12 -104.5q0 -54 21.5 -87.5t54 -44t69.5 3.5t68 56q20 28 40 62t37 67t31.5 62l23.5 47
q3 5 7 13.5t10 16t13 13t15 4.5q11 -2 11 -18q0 -4 -2 -13t-5 -15z" />
    <glyph glyph-name="Egrave" unicode="&#xc8;" horiz-adv-x="480" 
d="M451 728q-12 -5 -19 -5q-17 0 -30 17t-30 41q-2 3 -7.5 4.5l-11 3t-9.5 2t-4 2.5q0 26 9.5 35t22.5 9q5 0 18.5 -7t21.5 -24q14 -32 19.5 -49t19.5 -29zM395 617q4 15 4 28q0 17 -7.5 24.5t-18.5 7.5q-20 0 -48.5 -27t-54 -67t-43.5 -86t-18 -84q0 -24 11.5 -40t39.5 -18
q8 -2 19.5 -3.5t11.5 -11.5q0 -5 -2 -11t-4 -11q-5 1 -15 1q-31 0 -59 -21t-49.5 -53.5t-34 -71t-12.5 -73.5q0 -39 20.5 -69t64.5 -30t81.5 32t69.5 79.5t59 103t51 102.5l6 12t9.5 16t13 13.5t16.5 5.5q2 0 6.5 -3.5t4.5 -11.5q0 -3 -1 -11t-6 -20q-14 -32 -30.5 -71
t-37.5 -79.5t-46 -78.5t-55.5 -67.5t-66.5 -47.5t-79 -18q-50 0 -87.5 17.5t-62.5 44.5t-37 60.5t-12 66.5q0 34 11.5 67t35 60.5t58 47.5t80.5 27q-35 21 -50.5 54.5t-15.5 71.5q0 48 19 93t50.5 79.5t73.5 55.5t88 21q28 0 53.5 -8.5t44.5 -25t30 -41.5t11 -58
q0 -27 -8 -52.5t-19 -48.5t-23 -45t-20 -42q-49 4 -67.5 17.5t-18.5 33.5q0 16 8 35t19 40t22 43.5t17 45.5z" />
    <glyph glyph-name="Eacute" unicode="&#xc9;" horiz-adv-x="480" 
d="M214 709q14 12 19.5 29t19.5 49q8 17 21.5 24t18.5 7q13 0 22.5 -9t9.5 -35q0 -2 -4 -2.5t-9.5 -2l-11 -3t-7.5 -4.5q-17 -24 -30 -41t-30 -17q-7 0 -19 5zM395 617q4 15 4 28q0 17 -7.5 24.5t-18.5 7.5q-20 0 -48.5 -27t-54 -67t-43.5 -86t-18 -84q0 -24 11.5 -40
t39.5 -18q8 -2 19.5 -3.5t11.5 -11.5q0 -5 -2 -11t-4 -11q-5 1 -15 1q-31 0 -59 -21t-49.5 -53.5t-34 -71t-12.5 -73.5q0 -39 20.5 -69t64.5 -30t81.5 32t69.5 79.5t59 103t51 102.5l6 12t9.5 16t13 13.5t16.5 5.5q2 0 6.5 -3.5t4.5 -11.5q0 -3 -1 -11t-6 -20
q-14 -32 -30.5 -71t-37.5 -79.5t-46 -78.5t-55.5 -67.5t-66.5 -47.5t-79 -18q-50 0 -87.5 17.5t-62.5 44.5t-37 60.5t-12 66.5q0 34 11.5 67t35 60.5t58 47.5t80.5 27q-35 21 -50.5 54.5t-15.5 71.5q0 48 19 93t50.5 79.5t73.5 55.5t88 21q28 0 53.5 -8.5t44.5 -25t30 -41.5
t11 -58q0 -27 -8 -52.5t-19 -48.5t-23 -45t-20 -42q-49 4 -67.5 17.5t-18.5 33.5q0 16 8 35t19 40t22 43.5t17 45.5z" />
    <glyph glyph-name="Ecircumflex" unicode="&#xca;" horiz-adv-x="480" 
d="M247 788q16 17 35 27t33 21q8 6 10 13t7 10q5 4 9 2.5t7 -3.5q3 -4 4 -8.5t6 -9.5q6 -8 16 -15l20 -14t18.5 -13t12.5 -11q22 -28 -20 -56q0 20 -9.5 29.5t-22 15.5t-23.5 13t-14 22q-6 -16 -19.5 -24.5t-26.5 -15t-22.5 -15t-7.5 -25.5q-23 17 -25 29.5t12 27.5z
M395 617q4 15 4 28q0 17 -7.5 24.5t-18.5 7.5q-20 0 -48.5 -27t-54 -67t-43.5 -86t-18 -84q0 -24 11.5 -40t39.5 -18q8 -2 19.5 -3.5t11.5 -11.5q0 -5 -2 -11t-4 -11q-5 1 -15 1q-31 0 -59 -21t-49.5 -53.5t-34 -71t-12.5 -73.5q0 -39 20.5 -69t64.5 -30t81.5 32t69.5 79.5
t59 103t51 102.5l6 12t9.5 16t13 13.5t16.5 5.5q2 0 6.5 -3.5t4.5 -11.5q0 -3 -1 -11t-6 -20q-14 -32 -30.5 -71t-37.5 -79.5t-46 -78.5t-55.5 -67.5t-66.5 -47.5t-79 -18q-50 0 -87.5 17.5t-62.5 44.5t-37 60.5t-12 66.5q0 34 11.5 67t35 60.5t58 47.5t80.5 27
q-35 21 -50.5 54.5t-15.5 71.5q0 48 19 93t50.5 79.5t73.5 55.5t88 21q28 0 53.5 -8.5t44.5 -25t30 -41.5t11 -58q0 -27 -8 -52.5t-19 -48.5t-23 -45t-20 -42q-49 4 -67.5 17.5t-18.5 33.5q0 16 8 35t19 40t22 43.5t17 45.5z" />
    <glyph glyph-name="Edieresis" unicode="&#xcb;" horiz-adv-x="480" 
d="M279 754q-3 9 -0.5 18.5t6 18.5t6 16.5t-0.5 13.5q-1 1 9.5 2t22.5 -1.5t21.5 -9t6.5 -19.5q-2 -9 -5.5 -19t-5.5 -18t-3 -13.5t1 -6.5q-23 -6 -39 -1t-19 19zM377 754q-2 9 0.5 18.5t5.5 18.5l5.5 16.5t-0.5 13.5q-1 1 9.5 2t22.5 -1.5t21 -9t6 -19.5q-2 -9 -5 -19
t-5.5 -18t-3.5 -13.5t1 -6.5q-23 -6 -38 -1t-19 19zM395 617q4 15 4 28q0 17 -7.5 24.5t-18.5 7.5q-20 0 -48.5 -27t-54 -67t-43.5 -86t-18 -84q0 -24 11.5 -40t39.5 -18q8 -2 19.5 -3.5t11.5 -11.5q0 -5 -2 -11t-4 -11q-5 1 -15 1q-31 0 -59 -21t-49.5 -53.5t-34 -71
t-12.5 -73.5q0 -39 20.5 -69t64.5 -30t81.5 32t69.5 79.5t59 103t51 102.5l6 12t9.5 16t13 13.5t16.5 5.5q2 0 6.5 -3.5t4.5 -11.5q0 -3 -1 -11t-6 -20q-14 -32 -30.5 -71t-37.5 -79.5t-46 -78.5t-55.5 -67.5t-66.5 -47.5t-79 -18q-50 0 -87.5 17.5t-62.5 44.5t-37 60.5
t-12 66.5q0 34 11.5 67t35 60.5t58 47.5t80.5 27q-35 21 -50.5 54.5t-15.5 71.5q0 48 19 93t50.5 79.5t73.5 55.5t88 21q28 0 53.5 -8.5t44.5 -25t30 -41.5t11 -58q0 -27 -8 -52.5t-19 -48.5t-23 -45t-20 -42q-49 4 -67.5 17.5t-18.5 33.5q0 16 8 35t19 40t22 43.5t17 45.5z
" />
    <glyph glyph-name="Igrave" unicode="&#xcc;" horiz-adv-x="444" 
d="M384 737q-9 -5 -20 -5q-20 0 -33.5 18t-31.5 44q-3 3 -8.5 5t-11.5 3t-10.5 2.5t-4.5 3.5q0 28 10 37.5t24 9.5q6 0 21 -7.5t23 -26.5q14 -35 21 -53t21 -31zM329 716q61 -16 89.5 -40t28.5 -65q0 -14 -3 -31t-11 -37q-11 -29 -29.5 -75t-40 -100.5t-44 -111.5
t-41 -107.5t-30 -89.5t-11.5 -56q0 -9 4 -11.5t10 -2.5q9 0 18 6q2 -2 4.5 -3t2.5 -3q0 -3 -2.5 -8t-6.5 -10t-9 -8.5t-9 -3.5q-27 0 -46 9t-30.5 24.5t-17 36t-5.5 42.5q0 44 14.5 98.5t36.5 112.5t48 115.5t48 108t36.5 90t14.5 60.5q0 23 -16 23q-14 0 -37.5 -17.5
t-51 -47t-55 -67t-50 -77.5t-37 -79.5t-14.5 -71.5q0 -22 6 -35.5t15.5 -21.5t20.5 -11.5t21 -5.5l-3 -12q-3 -1 -11 -1q-10 0 -23 1.5t-25 3.5t-21 5t-11 5l-22 26t-20 27t-14.5 30.5t-5.5 37.5q0 38 12.5 78.5t34.5 79.5t51.5 74.5t63 62t69.5 42t71 15.5q18 0 33 -4z" />
    <glyph glyph-name="Iacute" unicode="&#xcd;" horiz-adv-x="444" 
d="M315 729q6 5 9.5 13t6 18t6 22t9.5 27q4 9 10.5 13t13.5 5.5t12.5 1.5t7.5 -1q11 -1 18 -8.5t9 -30.5q1 -2 -3 -3t-9 -2t-10.5 -2.5t-7.5 -4.5q-9 -14 -17 -25t-16 -18t-17.5 -9t-21.5 4zM329 716q61 -16 89.5 -40t28.5 -65q0 -14 -3 -31t-11 -37q-11 -29 -29.5 -75
t-40 -100.5t-44 -111.5t-41 -107.5t-30 -89.5t-11.5 -56q0 -9 4 -11.5t10 -2.5q9 0 18 6q2 -2 4.5 -3t2.5 -3q0 -3 -2.5 -8t-6.5 -10t-9 -8.5t-9 -3.5q-27 0 -46 9t-30.5 24.5t-17 36t-5.5 42.5q0 44 14.5 98.5t36.5 112.5t48 115.5t48 108t36.5 90t14.5 60.5q0 23 -16 23
q-14 0 -37.5 -17.5t-51 -47t-55 -67t-50 -77.5t-37 -79.5t-14.5 -71.5q0 -22 6 -35.5t15.5 -21.5t20.5 -11.5t21 -5.5l-3 -12q-3 -1 -11 -1q-10 0 -23 1.5t-25 3.5t-21 5t-11 5l-22 26t-20 27t-14.5 30.5t-5.5 37.5q0 38 12.5 78.5t34.5 79.5t51.5 74.5t63 62t69.5 42
t71 15.5q18 0 33 -4z" />
    <glyph glyph-name="Icircumflex" unicode="&#xce;" horiz-adv-x="444" 
d="M329 716q61 -16 89.5 -40t28.5 -65q0 -14 -3 -31t-11 -37q-11 -29 -29.5 -75t-40 -100.5t-44 -111.5t-41 -107.5t-30 -89.5t-11.5 -56q0 -9 4 -11.5t10 -2.5q9 0 18 6q2 -2 4.5 -3t2.5 -3q0 -3 -2.5 -8t-6.5 -10t-9 -8.5t-9 -3.5q-27 0 -46 9t-30.5 24.5t-17 36
t-5.5 42.5q0 44 14.5 98.5t36.5 112.5t48 115.5t48 108t36.5 90t14.5 60.5q0 23 -16 23q-14 0 -37.5 -17.5t-51 -47t-55 -67t-50 -77.5t-37 -79.5t-14.5 -71.5q0 -22 6 -35.5t15.5 -21.5t20.5 -11.5t21 -5.5l-3 -12q-3 -1 -11 -1q-10 0 -23 1.5t-25 3.5t-21 5t-11 5l-22 26
t-20 27t-14.5 30.5t-5.5 37.5q0 38 12.5 78.5t34.5 79.5t51.5 74.5t63 62t69.5 42t71 15.5q18 0 33 -4zM213 788q16 17 35 27t33 21q8 6 10 13t7 10q5 4 9 2.5t7 -3.5q3 -4 4 -8.5t6 -9.5q6 -8 16 -15l20 -14t18.5 -13t12.5 -11q22 -28 -20 -56q0 20 -9.5 29.5t-22 15.5
t-23.5 13t-14 22q-6 -16 -19.5 -24.5t-26.5 -15t-22.5 -15t-7.5 -25.5q-23 17 -25 29.5t12 27.5z" />
    <glyph glyph-name="Idieresis" unicode="&#xcf;" horiz-adv-x="444" 
d="M329 716q61 -16 89.5 -40t28.5 -65q0 -14 -3 -31t-11 -37q-11 -29 -29.5 -75t-40 -100.5t-44 -111.5t-41 -107.5t-30 -89.5t-11.5 -56q0 -9 4 -11.5t10 -2.5q9 0 18 6q2 -2 4.5 -3t2.5 -3q0 -3 -2.5 -8t-6.5 -10t-9 -8.5t-9 -3.5q-27 0 -46 9t-30.5 24.5t-17 36
t-5.5 42.5q0 44 14.5 98.5t36.5 112.5t48 115.5t48 108t36.5 90t14.5 60.5q0 23 -16 23q-14 0 -37.5 -17.5t-51 -47t-55 -67t-50 -77.5t-37 -79.5t-14.5 -71.5q0 -22 6 -35.5t15.5 -21.5t20.5 -11.5t21 -5.5l-3 -12q-3 -1 -11 -1q-10 0 -23 1.5t-25 3.5t-21 5t-11 5l-22 26
t-20 27t-14.5 30.5t-5.5 37.5q0 38 12.5 78.5t34.5 79.5t51.5 74.5t63 62t69.5 42t71 15.5q18 0 33 -4zM226 754q-3 9 -0.5 18.5t6 18.5t6 16.5t-0.5 13.5q-1 1 9.5 2t22.5 -1.5t21.5 -9t6.5 -19.5q-2 -9 -5.5 -19t-5.5 -18t-3 -13.5t1 -6.5q-23 -6 -39 -1t-19 19zM324 754
q-2 9 0.5 18.5t5.5 18.5l5.5 16.5t-0.5 13.5q-1 1 9.5 2t22.5 -1.5t21 -9t6 -19.5q-2 -9 -5 -19t-5.5 -18t-3.5 -13.5t1 -6.5q-23 -6 -38 -1t-19 19z" />
    <glyph glyph-name="Eth" unicode="&#xd0;" horiz-adv-x="619" 
d="M315 373q2 -11 3.5 -18.5t1.5 -13.5q0 -21 -10.5 -27t-27.5 -6h-58q-11 -32 -21 -60t-15 -50q-2 -6 -3 -13.5t-1 -15.5q0 -9 3 -16t11 -7q5 0 16 6q2 -3 4 -4t2 -3q0 -1 -5.5 -4.5t-14 -8t-18 -8t-17.5 -3.5q-3 0 -4 1q-17 7 -31.5 15.5t-25 19t-17 25.5t-6.5 36
q0 17 5 41.5t13 52.5q-13 0 -27.5 -0.5t-34.5 -1.5v10q0 38 12.5 48t32.5 10q2 0 12.5 -0.5t27.5 -1.5q13 37 29 74.5t30.5 71t26.5 60.5t19 44q-29 -11 -64.5 -29t-72 -42t-71 -53.5t-59.5 -62.5q-6 -7 -13.5 -18t-14 -23.5t-11.5 -25.5t-5 -24t6 -19t20 -11l-5 -11
q-21 0 -40 8.5t-32.5 21.5t-21.5 29.5t-8 33.5q0 23 8 44.5t21 41.5q31 49 80 91.5t106.5 74t121 49.5t123.5 18q63 0 112.5 -20.5t83.5 -55.5t51.5 -83t17.5 -103q0 -51 -15 -106.5t-42 -109t-64.5 -102t-83.5 -85t-98.5 -58t-108.5 -21.5q-32 0 -62 8t-53.5 23t-38 37
t-14.5 49q0 11 4 19l25 51l16 -13q-9 -18 -9 -32q0 -25 20.5 -39.5t55.5 -14.5q47 0 95.5 21.5t93.5 57t84.5 82t69 96.5t46.5 100.5t17 94.5q0 35 -11 60.5t-31 42.5t-47.5 25t-59.5 8q-46 0 -102 -17q11 -3 25 -7t26.5 -10t21 -15t8.5 -22q0 -3 -7 -21.5t-18.5 -47
t-26 -65t-29.5 -74.5h41h15t12 1z" />
    <glyph glyph-name="Ntilde" unicode="&#xd1;" horiz-adv-x="790" 
d="M671 801q4 -35 -12.5 -50t-42.5 -16q-19 -1 -37 3t-35 10t-33.5 12.5t-33.5 12.5q-17 5 -33.5 -1t-14.5 -25q0 -2 -6 -1.5t-8 5.5q-3 22 8.5 37.5t33.5 20.5q17 4 38 -1.5t43.5 -13.5l45 -16t43.5 -9q12 -1 17.5 2.5t8 8.5t3 10.5t2.5 9.5q2 1 5 2q5 2 8 -1zM335 133
l251 529q3 8 7 17q3 8 5.5 16.5t2.5 17.5q-1 0 4.5 0.5t14.5 0.5q17 0 43 -3t51 -13.5t42.5 -29.5t17.5 -51q0 -17 -6 -38q-7 -22 -21.5 -61t-33 -87t-38 -102.5t-35 -107.5t-26 -100.5t-10.5 -81.5q0 -14 2 -28.5t7 -26t14.5 -18.5t23.5 -7q11 0 26 5q7 2 15 5
q-1 -9 -3 -17t-8.5 -13.5t-18 -8.5t-32.5 -3q-63 0 -100 41t-37 122q0 47 11.5 100.5t28.5 108t37.5 106t37.5 95.5t28.5 77t11.5 49q0 13 -6 13q-5 0 -11.5 -8t-17.5 -28q-8 -14 -28.5 -55.5t-47.5 -98.5t-57.5 -123t-58.5 -129t-50 -117t-32 -86h-14q-119 0 -119 97
q0 25 16.5 80t41 127t53.5 153t54 157q11 34 10 48q0 23 -17 23q-18 0 -44.5 -18.5t-56.5 -49.5t-59.5 -71t-53.5 -82.5t-39 -85t-15 -78.5q0 -18 5.5 -33.5t14.5 -27t19.5 -18.5t20.5 -8l-2 -12q-2 0 -2.5 -0.5t-2.5 -0.5q-9 0 -22.5 3.5t-26.5 8t-23 9t-12 7.5
q-25 26 -43.5 53t-18.5 68q0 39 13 82t36 85.5t54 81t66.5 67.5t74.5 46.5t77 17.5q13 0 39.5 -5t53.5 -17t47 -33t20 -52q0 -20 -7 -41q-5 -15 -17.5 -50t-29 -81t-34 -96t-32 -94t-24 -76.5t-9.5 -42.5q0 -3 2 -3q1 0 2 1z" />
    <glyph glyph-name="Ograve" unicode="&#xd2;" horiz-adv-x="672" 
d="M389 38q-32 -27 -66.5 -40.5t-66.5 -13.5q-57 0 -99.5 40t-48.5 119q-52 31 -79.5 84t-27.5 116q0 75 31 143.5t81 121t113.5 84t129.5 31.5q48 0 90.5 -15t74.5 -46t51 -77t19 -109q0 -60 -16.5 -123t-44.5 -122t-64.5 -109t-76.5 -84zM220 122q-3 -17 -3 -30
q0 -31 13.5 -47.5t33.5 -16.5q28 0 57 25t56 66t50 93.5t40 107.5t27 109t10 97q0 78 -31 114.5t-79 36.5q-38 0 -74 -19.5t-67.5 -52t-58.5 -74.5t-46 -86t-29.5 -86.5t-10.5 -76.5q0 -28 7 -48q10 47 26 88.5t31.5 75t26.5 56.5t11 34v4q2 2 8 2q10 0 28.5 -4t36.5 -12
t31 -20t13 -28q0 -11 -5 -20q-4 -8 -16 -33t-26.5 -59t-28.5 -74t-23 -77q19 7 33 20t19 30q4 -2 8 -11t4 -21t-6.5 -22.5t-17 -19t-23 -14t-25.5 -7.5zM486 728q-12 -5 -19 -5q-17 0 -30 17t-30 41q-2 3 -7.5 4.5l-11 3t-9.5 2t-4 2.5q0 26 9.5 35t22.5 9q5 0 18.5 -7
t21.5 -24q14 -32 19.5 -49t19.5 -29z" />
    <glyph glyph-name="Oacute" unicode="&#xd3;" horiz-adv-x="672" 
d="M389 38q-32 -27 -66.5 -40.5t-66.5 -13.5q-57 0 -99.5 40t-48.5 119q-52 31 -79.5 84t-27.5 116q0 75 31 143.5t81 121t113.5 84t129.5 31.5q48 0 90.5 -15t74.5 -46t51 -77t19 -109q0 -60 -16.5 -123t-44.5 -122t-64.5 -109t-76.5 -84zM220 122q-3 -17 -3 -30
q0 -31 13.5 -47.5t33.5 -16.5q28 0 57 25t56 66t50 93.5t40 107.5t27 109t10 97q0 78 -31 114.5t-79 36.5q-38 0 -74 -19.5t-67.5 -52t-58.5 -74.5t-46 -86t-29.5 -86.5t-10.5 -76.5q0 -28 7 -48q10 47 26 88.5t31.5 75t26.5 56.5t11 34v4q2 2 8 2q10 0 28.5 -4t36.5 -12
t31 -20t13 -28q0 -11 -5 -20q-4 -8 -16 -33t-26.5 -59t-28.5 -74t-23 -77q19 7 33 20t19 30q4 -2 8 -11t4 -21t-6.5 -22.5t-17 -19t-23 -14t-25.5 -7.5zM176 695q14 12 19.5 29t19.5 49q8 17 21.5 24t18.5 7q13 0 22.5 -9t9.5 -35q0 -2 -4 -2.5t-9.5 -2l-11 -3t-7.5 -4.5
q-17 -24 -30 -41t-30 -17q-7 0 -19 5z" />
    <glyph glyph-name="Ocircumflex" unicode="&#xd4;" horiz-adv-x="672" 
d="M389 38q-32 -27 -66.5 -40.5t-66.5 -13.5q-57 0 -99.5 40t-48.5 119q-52 31 -79.5 84t-27.5 116q0 75 31 143.5t81 121t113.5 84t129.5 31.5q48 0 90.5 -15t74.5 -46t51 -77t19 -109q0 -60 -16.5 -123t-44.5 -122t-64.5 -109t-76.5 -84zM220 122q-3 -17 -3 -30
q0 -31 13.5 -47.5t33.5 -16.5q28 0 57 25t56 66t50 93.5t40 107.5t27 109t10 97q0 78 -31 114.5t-79 36.5q-38 0 -74 -19.5t-67.5 -52t-58.5 -74.5t-46 -86t-29.5 -86.5t-10.5 -76.5q0 -28 7 -48q10 47 26 88.5t31.5 75t26.5 56.5t11 34v4q2 2 8 2q10 0 28.5 -4t36.5 -12
t31 -20t13 -28q0 -11 -5 -20q-4 -8 -16 -33t-26.5 -59t-28.5 -74t-23 -77q19 7 33 20t19 30q4 -2 8 -11t4 -21t-6.5 -22.5t-17 -19t-23 -14t-25.5 -7.5zM290 788q16 17 35 27t33 21q8 6 10 13t7 10q5 4 9 2.5t7 -3.5q3 -4 4 -8.5t6 -9.5q6 -8 16 -15l20 -14t18.5 -13
t12.5 -11q22 -28 -20 -56q0 20 -9.5 29.5t-22 15.5t-23.5 13t-14 22q-6 -16 -19.5 -24.5t-26.5 -15t-22.5 -15t-7.5 -25.5q-23 17 -25 29.5t12 27.5z" />
    <glyph glyph-name="Otilde" unicode="&#xd5;" horiz-adv-x="672" 
d="M389 38q-32 -27 -66.5 -40.5t-66.5 -13.5q-57 0 -99.5 40t-48.5 119q-52 31 -79.5 84t-27.5 116q0 75 31 143.5t81 121t113.5 84t129.5 31.5q48 0 90.5 -15t74.5 -46t51 -77t19 -109q0 -60 -16.5 -123t-44.5 -122t-64.5 -109t-76.5 -84zM220 122q-3 -17 -3 -30
q0 -31 13.5 -47.5t33.5 -16.5q28 0 57 25t56 66t50 93.5t40 107.5t27 109t10 97q0 78 -31 114.5t-79 36.5q-38 0 -74 -19.5t-67.5 -52t-58.5 -74.5t-46 -86t-29.5 -86.5t-10.5 -76.5q0 -28 7 -48q10 47 26 88.5t31.5 75t26.5 56.5t11 34v4q2 2 8 2q10 0 28.5 -4t36.5 -12
t31 -20t13 -28q0 -11 -5 -20q-4 -8 -16 -33t-26.5 -59t-28.5 -74t-23 -77q19 7 33 20t19 30q4 -2 8 -11t4 -21t-6.5 -22.5t-17 -19t-23 -14t-25.5 -7.5zM509 802q3 -40 -11 -57.5t-37 -18.5q-17 -1 -32 3.5t-30 11.5t-29.5 15t-29.5 14q-14 5 -29 -1.5t-13 -28.5q0 -2 -5 -1
t-7 6q-3 25 7 42.5t29 23.5q15 4 33 -2t37.5 -15.5t39.5 -18.5t38 -10q10 -1 15 3t7.5 9.5t2.5 12t2 10.5q1 2 4 3q5 2 8 -1z" />
    <glyph glyph-name="Odieresis" unicode="&#xd6;" horiz-adv-x="672" 
d="M389 38q-32 -27 -66.5 -40.5t-66.5 -13.5q-57 0 -99.5 40t-48.5 119q-52 31 -79.5 84t-27.5 116q0 75 31 143.5t81 121t113.5 84t129.5 31.5q48 0 90.5 -15t74.5 -46t51 -77t19 -109q0 -60 -16.5 -123t-44.5 -122t-64.5 -109t-76.5 -84zM220 122q-3 -17 -3 -30
q0 -31 13.5 -47.5t33.5 -16.5q28 0 57 25t56 66t50 93.5t40 107.5t27 109t10 97q0 78 -31 114.5t-79 36.5q-38 0 -74 -19.5t-67.5 -52t-58.5 -74.5t-46 -86t-29.5 -86.5t-10.5 -76.5q0 -28 7 -48q10 47 26 88.5t31.5 75t26.5 56.5t11 34v4q2 2 8 2q10 0 28.5 -4t36.5 -12
t31 -20t13 -28q0 -11 -5 -20q-4 -8 -16 -33t-26.5 -59t-28.5 -74t-23 -77q19 7 33 20t19 30q4 -2 8 -11t4 -21t-6.5 -22.5t-17 -19t-23 -14t-25.5 -7.5zM275 754q-3 9 -0.5 18.5t6 18.5t6 16.5t-0.5 13.5q-1 1 9.5 2t22.5 -1.5t21.5 -9t6.5 -19.5q-2 -9 -5.5 -19t-5.5 -18
t-3 -13.5t1 -6.5q-23 -6 -39 -1t-19 19zM373 754q-2 9 0.5 18.5t5.5 18.5l5.5 16.5t-0.5 13.5q-1 1 9.5 2t22.5 -1.5t21 -9t6 -19.5q-2 -9 -5 -19t-5.5 -18t-3.5 -13.5t1 -6.5q-23 -6 -38 -1t-19 19z" />
    <glyph glyph-name="multiply" unicode="&#xd7;" horiz-adv-x="580" 
d="M454 483q25 -12 36 -23.5t10.5 -23.5t-10.5 -24.5t-25 -25.5q-44 -36 -74.5 -61.5t-53.5 -44.5q9 -17 18 -33.5t21 -37.5t28.5 -47.5t39.5 -62.5q-35 -21 -56.5 -21t-36.5 12.5t-26 33.5t-24 42q-7 11 -15 25.5t-17 31.5q-15 -12 -30 -25.5t-33.5 -29.5t-41 -36.5
t-51.5 -46.5q-34 19 -39 38t7 37.5t34.5 36.5t43.5 36q11 11 30 26t43 35q-14 25 -27.5 50t-26 47.5t-23.5 40t-19 27.5q21 21 36.5 28t28 4.5t22 -13.5t18.5 -27q20 -33 33.5 -58t24.5 -45q24 21 48 41l45 37.5t37 32t25 24.5z" />
    <glyph glyph-name="Oslash" unicode="&#xd8;" horiz-adv-x="672" 
d="M389 38q-10 -8 -19.5 -15t-19.5 -13q-5 -27 -9 -55.5t-8 -57.5q-30 10 -40.5 31t-10.5 48v10q-7 -1 -13.5 -1.5t-12.5 -0.5q-57 0 -99.5 40t-48.5 119q-52 31 -79.5 84t-27.5 116q0 75 31 143.5t81 121t113.5 84t129.5 31.5q25 0 53 -5q5 25 7 43t4 29q3 0 5.5 0.5
t5.5 0.5q24 0 33 -13.5t9 -37.5q0 -9 -1 -20t-3 -22q54 -26 88 -81.5t34 -140.5q0 -60 -16.5 -123t-44.5 -122t-64.5 -109t-76.5 -84zM220 122q-3 -17 -3 -30q0 -31 13.5 -47.5t33.5 -16.5q12 0 23 4q2 14 5 27.5t5 28.5q3 18 9.5 56t15.5 88t20 108t21.5 117.5t20.5 116
t18 102.5q-2 0 -4 0.5t-4 0.5q-38 0 -74 -19.5t-67.5 -52t-58.5 -74.5t-46 -86t-29.5 -86.5t-10.5 -76.5q0 -28 7 -48q10 47 26 88.5t31.5 75t26.5 56.5t11 34v4q2 2 8 2q10 0 28.5 -4t36.5 -12t31 -20t13 -28q0 -11 -5 -20q-4 -8 -16 -33t-26.5 -59t-28.5 -74t-23 -77
q19 7 33 20t19 30q4 -2 8 -11t4 -21t-6.5 -22.5t-17 -19t-23 -14t-25.5 -7.5zM364 100q29 40 54.5 94t44.5 112.5t30 116t11 103.5t-11.5 77t-31.5 49q-12 -75 -24.5 -145t-25 -137.5t-24.5 -134t-23 -135.5z" />
    <glyph glyph-name="Ugrave" unicode="&#xd9;" horiz-adv-x="802" 
d="M608 707q-12 -5 -19 -5q-17 0 -30 17t-30 41q-2 3 -7.5 4.5l-11 3t-9.5 2t-4 2.5q0 26 9.5 35t22.5 9q5 0 18.5 -7t21.5 -24q14 -32 19.5 -49t19.5 -29zM580 6q-48 9 -68.5 39.5t-20.5 77.5q0 33 9 72q-21 -39 -40 -72.5t-36 -58t-30.5 -39t-22.5 -14.5q-41 0 -70.5 11
t-48.5 30t-28 44.5t-9 55.5q0 23 4 43q11 57 29.5 108.5t39 101l41 99t37.5 102.5q10 31 10 52q0 26 -18 26t-44.5 -18t-55.5 -48t-58 -68t-51.5 -78.5t-37 -79.5t-14.5 -70q0 -21 6 -33.5t15 -19.5t19.5 -10t18.5 -4l-2 -12q-3 -1 -12 -1q-10 0 -22.5 1.5t-24 3.5t-20 4.5
t-10.5 4.5q-12 13 -23.5 25.5t-20 26.5t-13.5 30.5t-5 36.5q0 55 28 116.5t73 113t102 85t115 33.5q9 0 18.5 -1t18.5 -3q64 -15 92 -41t28 -63q0 -12 -2.5 -24.5t-7.5 -26.5q-18 -53 -44 -116t-50.5 -126t-41.5 -121t-17 -101t24 -43q22 0 50 40q43 60 80.5 130t70.5 145.5
t63 154t60 155.5q5 15 5 24q0 10 -6 16q4 2 14 2q12 0 30 -3.5t35.5 -10.5t29.5 -18t12 -26q0 -9 -4 -17q-9 -19 -26 -65t-37 -104.5t-41 -123.5t-38 -122.5t-28 -100t-11 -57.5q0 -29 14 -29q10 0 24.5 15.5t31 40.5t33.5 55.5t32.5 60.5t28.5 56.5t21 42.5q3 6 7.5 14.5
t10.5 16.5t13 12.5t15 3.5q6 -1 8 -6.5t1.5 -13t-2.5 -15t-4 -11.5q-7 -15 -20.5 -44.5t-31 -65t-37 -72.5t-39.5 -67.5t-38.5 -50.5t-32.5 -21q-8 0 -23 2t-30 6z" />
    <glyph glyph-name="Uacute" unicode="&#xda;" horiz-adv-x="802" 
d="M497 703q14 12 19.5 29t19.5 49q8 17 21.5 24t18.5 7q13 0 22.5 -9t9.5 -35q0 -2 -4 -2.5t-9.5 -2l-11 -3t-7.5 -4.5q-17 -24 -30 -41t-30 -17q-7 0 -19 5zM580 6q-48 9 -68.5 39.5t-20.5 77.5q0 33 9 72q-21 -39 -40 -72.5t-36 -58t-30.5 -39t-22.5 -14.5
q-41 0 -70.5 11t-48.5 30t-28 44.5t-9 55.5q0 23 4 43q11 57 29.5 108.5t39 101l41 99t37.5 102.5q10 31 10 52q0 26 -18 26t-44.5 -18t-55.5 -48t-58 -68t-51.5 -78.5t-37 -79.5t-14.5 -70q0 -21 6 -33.5t15 -19.5t19.5 -10t18.5 -4l-2 -12q-3 -1 -12 -1q-10 0 -22.5 1.5
t-24 3.5t-20 4.5t-10.5 4.5q-12 13 -23.5 25.5t-20 26.5t-13.5 30.5t-5 36.5q0 55 28 116.5t73 113t102 85t115 33.5q9 0 18.5 -1t18.5 -3q64 -15 92 -41t28 -63q0 -12 -2.5 -24.5t-7.5 -26.5q-18 -53 -44 -116t-50.5 -126t-41.5 -121t-17 -101t24 -43q22 0 50 40
q43 60 80.5 130t70.5 145.5t63 154t60 155.5q5 15 5 24q0 10 -6 16q4 2 14 2q12 0 30 -3.5t35.5 -10.5t29.5 -18t12 -26q0 -9 -4 -17q-9 -19 -26 -65t-37 -104.5t-41 -123.5t-38 -122.5t-28 -100t-11 -57.5q0 -29 14 -29q10 0 24.5 15.5t31 40.5t33.5 55.5t32.5 60.5
t28.5 56.5t21 42.5q3 6 7.5 14.5t10.5 16.5t13 12.5t15 3.5q6 -1 8 -6.5t1.5 -13t-2.5 -15t-4 -11.5q-7 -15 -20.5 -44.5t-31 -65t-37 -72.5t-39.5 -67.5t-38.5 -50.5t-32.5 -21q-8 0 -23 2t-30 6z" />
    <glyph glyph-name="Ucircumflex" unicode="&#xdb;" horiz-adv-x="802" 
d="M460 788q16 17 35 27t33 21q8 6 10 13t7 10q5 4 9 2.5t7 -3.5q3 -4 4 -8.5t6 -9.5q6 -8 16 -15l20 -14t18.5 -13t12.5 -11q22 -28 -20 -56q0 20 -9.5 29.5t-22 15.5t-23.5 13t-14 22q-6 -16 -19.5 -24.5t-26.5 -15t-22.5 -15t-7.5 -25.5q-23 17 -25 29.5t12 27.5zM580 6
q-48 9 -68.5 39.5t-20.5 77.5q0 33 9 72q-21 -39 -40 -72.5t-36 -58t-30.5 -39t-22.5 -14.5q-41 0 -70.5 11t-48.5 30t-28 44.5t-9 55.5q0 23 4 43q11 57 29.5 108.5t39 101l41 99t37.5 102.5q10 31 10 52q0 26 -18 26t-44.5 -18t-55.5 -48t-58 -68t-51.5 -78.5t-37 -79.5
t-14.5 -70q0 -21 6 -33.5t15 -19.5t19.5 -10t18.5 -4l-2 -12q-3 -1 -12 -1q-10 0 -22.5 1.5t-24 3.5t-20 4.5t-10.5 4.5q-12 13 -23.5 25.5t-20 26.5t-13.5 30.5t-5 36.5q0 55 28 116.5t73 113t102 85t115 33.5q9 0 18.5 -1t18.5 -3q64 -15 92 -41t28 -63q0 -12 -2.5 -24.5
t-7.5 -26.5q-18 -53 -44 -116t-50.5 -126t-41.5 -121t-17 -101t24 -43q22 0 50 40q43 60 80.5 130t70.5 145.5t63 154t60 155.5q5 15 5 24q0 10 -6 16q4 2 14 2q12 0 30 -3.5t35.5 -10.5t29.5 -18t12 -26q0 -9 -4 -17q-9 -19 -26 -65t-37 -104.5t-41 -123.5t-38 -122.5
t-28 -100t-11 -57.5q0 -29 14 -29q10 0 24.5 15.5t31 40.5t33.5 55.5t32.5 60.5t28.5 56.5t21 42.5q3 6 7.5 14.5t10.5 16.5t13 12.5t15 3.5q6 -1 8 -6.5t1.5 -13t-2.5 -15t-4 -11.5q-7 -15 -20.5 -44.5t-31 -65t-37 -72.5t-39.5 -67.5t-38.5 -50.5t-32.5 -21q-8 0 -23 2
t-30 6z" />
    <glyph glyph-name="Udieresis" unicode="&#xdc;" horiz-adv-x="802" 
d="M457 754q-3 9 -0.5 18.5t6 18.5t6 16.5t-0.5 13.5q-1 1 9.5 2t22.5 -1.5t21.5 -9t6.5 -19.5q-2 -9 -5.5 -19t-5.5 -18t-3 -13.5t1 -6.5q-23 -6 -39 -1t-19 19zM555 754q-2 9 0.5 18.5t5.5 18.5l5.5 16.5t-0.5 13.5q-1 1 9.5 2t22.5 -1.5t21 -9t6 -19.5q-2 -9 -5 -19
t-5.5 -18t-3.5 -13.5t1 -6.5q-23 -6 -38 -1t-19 19zM580 6q-48 9 -68.5 39.5t-20.5 77.5q0 33 9 72q-21 -39 -40 -72.5t-36 -58t-30.5 -39t-22.5 -14.5q-41 0 -70.5 11t-48.5 30t-28 44.5t-9 55.5q0 23 4 43q11 57 29.5 108.5t39 101l41 99t37.5 102.5q10 31 10 52
q0 26 -18 26t-44.5 -18t-55.5 -48t-58 -68t-51.5 -78.5t-37 -79.5t-14.5 -70q0 -21 6 -33.5t15 -19.5t19.5 -10t18.5 -4l-2 -12q-3 -1 -12 -1q-10 0 -22.5 1.5t-24 3.5t-20 4.5t-10.5 4.5q-12 13 -23.5 25.5t-20 26.5t-13.5 30.5t-5 36.5q0 55 28 116.5t73 113t102 85
t115 33.5q9 0 18.5 -1t18.5 -3q64 -15 92 -41t28 -63q0 -12 -2.5 -24.5t-7.5 -26.5q-18 -53 -44 -116t-50.5 -126t-41.5 -121t-17 -101t24 -43q22 0 50 40q43 60 80.5 130t70.5 145.5t63 154t60 155.5q5 15 5 24q0 10 -6 16q4 2 14 2q12 0 30 -3.5t35.5 -10.5t29.5 -18
t12 -26q0 -9 -4 -17q-9 -19 -26 -65t-37 -104.5t-41 -123.5t-38 -122.5t-28 -100t-11 -57.5q0 -29 14 -29q10 0 24.5 15.5t31 40.5t33.5 55.5t32.5 60.5t28.5 56.5t21 42.5q3 6 7.5 14.5t10.5 16.5t13 12.5t15 3.5q6 -1 8 -6.5t1.5 -13t-2.5 -15t-4 -11.5
q-7 -15 -20.5 -44.5t-31 -65t-37 -72.5t-39.5 -67.5t-38.5 -50.5t-32.5 -21q-8 0 -23 2t-30 6z" />
    <glyph glyph-name="Yacute" unicode="&#xdd;" horiz-adv-x="764" 
d="M497 703q14 12 19.5 29t19.5 49q8 17 21.5 24t18.5 7q13 0 22.5 -9t9.5 -35q0 -2 -4 -2.5t-9.5 -2l-11 -3t-7.5 -4.5q-17 -24 -30 -41t-30 -17q-7 0 -19 5zM58 255q-12 13 -23 25.5t-19.5 26t-13.5 30t-5 37.5q0 55 28 116.5t73 113t102 85t115 33.5q22 0 38 -4
q65 -15 92.5 -41t27.5 -64q0 -23 -9 -50q-18 -53 -44.5 -116t-51 -126.5t-42 -121.5t-17.5 -101q0 -42 23 -42q21 0 51 40q44 60 80 127t66.5 137.5t57 141.5t51.5 138q5 13 5 22q0 12 -8 18q3 1 14 1q13 0 31.5 -3t36 -9.5t29.5 -17.5t12 -26q0 -10 -4 -18
q-9 -21 -26.5 -70t-38 -110.5t-41 -128t-36.5 -120.5q-11 -40 -20.5 -76.5t-18.5 -72.5q14 -1 28 -3.5t31 -7.5q12 -3 25.5 -11.5t25 -19t19.5 -20.5t9 -17q-3 -8 -9 -8q-7 0 -11 5q-11 12 -24 16.5t-28 4.5q-41 0 -65.5 -17.5t-37 -44.5t-16.5 -59.5t-4 -62.5q0 -37 6 -73
q0 -6 -14 -6q-23 0 -44 11.5t-36.5 29.5t-24.5 40.5t-9 44.5q0 20 6 41q10 38 22 67t23.5 58t21.5 64t18 85l10 50q-21 -39 -40.5 -73t-36.5 -59t-30.5 -39.5t-22.5 -14.5q-41 0 -70.5 11t-49 29.5t-28.5 44t-9 55.5q0 19 5 44q12 58 30 110t38.5 102t41.5 100t39 103
q5 17 8.5 29.5t2.5 20.5q0 20 -15 20q-17 0 -43 -17.5t-56 -46t-60 -65.5t-54.5 -77t-39.5 -79.5t-15 -72.5q0 -17 6 -31t15 -24.5t19.5 -17t19.5 -7.5l-3 -12q-2 0 -2.5 -0.5t-2.5 -0.5q-9 0 -22.5 3t-26.5 7.5t-23 9t-12 7.5z" />
    <glyph glyph-name="Thorn" unicode="&#xde;" horiz-adv-x="732" 
d="M89 398q-9 -19 -10.5 -32t3.5 -21.5t14.5 -12.5t22.5 -5l-4 -11q-9 -1 -21.5 -3t-25.5 1q-6 1 -16 10t-20.5 20.5t-18.5 23t-10 18.5q-7 25 2 52.5t28 54t44 50t49 41.5q30 22 68 42t80 36t86.5 26.5t87.5 13.5l12 28q1 4 4.5 13.5t4 19.5t-4 19t-18.5 13q-1 2 12.5 4
t33 2t41.5 -3.5t38 -11.5t23 -22.5t-4 -36.5q-2 -4 -6.5 -13.5t-10.5 -23.5q66 -22 104.5 -73t31.5 -121q-7 -61 -40 -111t-79.5 -85.5t-101 -55t-103.5 -19.5q-15 -40 -27 -79.5t-18.5 -72t-8 -55t3.5 -28.5q4 -4 12 -4.5t16 5.5q3 -3 6 -4t0 -5q-2 -2 -5 -6.5t-6.5 -9
t-7.5 -7.5t-9 -2q-36 5 -57 23t-30 43t-9 55.5t5.5 62t13.5 61.5t15 54l-8 94q18 -6 36 -9q7 19 18.5 50t25.5 67.5t29.5 75t29.5 74.5q-48 -12 -97.5 -32.5t-93.5 -47.5t-78 -60t-52 -70zM428 341q51 9 93.5 32t72.5 52.5t46.5 62t14.5 61t-24.5 49t-68.5 26.5q-4 0 -8 0.5
t-8 0.5q-15 -35 -32 -76t-33.5 -80t-30 -73t-22.5 -55z" />
    <glyph glyph-name="germandbls" unicode="&#xdf;" horiz-adv-x="600" 
d="M219 562q12 31 31 57.5t44.5 46.5t56.5 31.5t66 11.5q34 0 60.5 -15t45 -38t29 -52t13.5 -57q5 -42 -14.5 -79.5t-52.5 -67.5t-72 -52.5t-73 -34.5q38 -25 64 -57t36.5 -69t3.5 -77t-35 -80q-24 -33 -61.5 -53t-79.5 -28.5t-83.5 -7t-73.5 10.5q-63 20 -74.5 64.5
t18.5 102.5q5 -24 25 -41t49 -26t64 -9.5t69.5 8t65.5 27.5t53 49q14 19 9.5 40.5t-26.5 40.5t-61 32t-93 15q-20 -60 -26.5 -89t2.5 -39q9 -11 31 2q3 -3 6 -4t0 -5q-2 -3 -7.5 -8t-12 -9.5t-13 -8t-10.5 -1.5q-42 12 -63.5 27t-29 36.5t-2.5 52t16 72.5l-25 78q15 -1 52 5
q16 47 37 98t41 100zM424 463q45 34 60.5 66.5t11.5 58t-23 41t-43.5 14.5t-50 -21.5t-42.5 -66.5q-14 -40 -31.5 -85.5t-34.5 -89.5q28 11 71.5 32.5t81.5 50.5z" />
    <glyph glyph-name="agrave" unicode="&#xe0;" 
d="M333 492q-9 -5 -19 -5q-19 0 -32 17t-30 42q-2 3 -7.5 5t-11 3t-10 2t-4.5 3q0 26 9.5 35.5t22.5 9.5q6 0 20 -7.5t22 -25.5q14 -32 20 -49.5t20 -29.5zM320 47q8 0 24 21.5t37.5 58t47.5 86t53 105.5q11 23 22.5 36t22.5 11q10 -2 11 -14.5t-7 -31.5q-25 -54 -53 -110.5
t-55 -103t-50 -77t-38 -30.5q-75 0 -113 32t-36 104q-30 -55 -57 -93.5t-44 -39.5q-8 0 -23.5 2t-30.5 6q-50 10 -72.5 50.5t-22.5 95.5q0 52 18 109.5t49.5 105.5t75 79t93.5 31q42 0 69.5 -15.5t43.5 -29.5q1 3 5 13t-1 16q-1 1 1.5 2.5t6.5 1.5q13 1 31 -2t34.5 -10.5
t28.5 -19t12 -26.5q0 -9 -4 -17q-12 -28 -30.5 -73t-36 -92.5t-29 -89.5t-8.5 -65q2 -12 7 -19t18 -7zM271 397q-9 11 -21.5 17.5t-27.5 6.5q-22 0 -44 -16q-23 -17 -46 -58.5t-42.5 -92t-31.5 -100t-12 -81.5q0 -13 3.5 -22t13.5 -9q7 0 20.5 17t31 45t37.5 64.5t40.5 76
l41 79t37.5 73.5z" />
    <glyph glyph-name="aacute" unicode="&#xe1;" 
d="M219 492q14 12 20 29.5t20 49.5q8 18 22 25.5t20 7.5q13 0 22.5 -9.5t9.5 -35.5q0 -2 -4.5 -3t-10 -2t-11 -3t-7.5 -5q-17 -25 -30 -42t-32 -17q-10 0 -19 5zM320 47q8 0 24 21.5t37.5 58t47.5 86t53 105.5q11 23 22.5 36t22.5 11q10 -2 11 -14.5t-7 -31.5
q-25 -54 -53 -110.5t-55 -103t-50 -77t-38 -30.5q-75 0 -113 32t-36 104q-30 -55 -57 -93.5t-44 -39.5q-8 0 -23.5 2t-30.5 6q-50 10 -72.5 50.5t-22.5 95.5q0 52 18 109.5t49.5 105.5t75 79t93.5 31q42 0 69.5 -15.5t43.5 -29.5q1 3 5 13t-1 16q-1 1 1.5 2.5t6.5 1.5
q13 1 31 -2t34.5 -10.5t28.5 -19t12 -26.5q0 -9 -4 -17q-12 -28 -30.5 -73t-36 -92.5t-29 -89.5t-8.5 -65q2 -12 7 -19t18 -7zM271 397q-9 11 -21.5 17.5t-27.5 6.5q-22 0 -44 -16q-23 -17 -46 -58.5t-42.5 -92t-31.5 -100t-12 -81.5q0 -13 3.5 -22t13.5 -9q7 0 20.5 17
t31 45t37.5 64.5t40.5 76l41 79t37.5 73.5z" />
    <glyph glyph-name="acircumflex" unicode="&#xe2;" 
d="M159 543q14 14 29 22t26 17q7 5 8.5 11t5.5 8q4 3 7.5 2.5t5.5 -2.5q2 -3 3 -6.5t5 -8.5q11 -12 29.5 -24t25.5 -20q17 -22 -16 -45q0 16 -8 23.5t-18 12.5t-19 11t-11 18q-6 -13 -17 -19.5t-21.5 -12t-18 -12.5t-5.5 -21q-19 14 -20.5 24t9.5 22zM320 47q8 0 24 21.5
t37.5 58t47.5 86t53 105.5q11 23 22.5 36t22.5 11q10 -2 11 -14.5t-7 -31.5q-25 -54 -53 -110.5t-55 -103t-50 -77t-38 -30.5q-75 0 -113 32t-36 104q-30 -55 -57 -93.5t-44 -39.5q-8 0 -23.5 2t-30.5 6q-50 10 -72.5 50.5t-22.5 95.5q0 52 18 109.5t49.5 105.5t75 79
t93.5 31q42 0 69.5 -15.5t43.5 -29.5q1 3 5 13t-1 16q-1 1 1.5 2.5t6.5 1.5q13 1 31 -2t34.5 -10.5t28.5 -19t12 -26.5q0 -9 -4 -17q-12 -28 -30.5 -73t-36 -92.5t-29 -89.5t-8.5 -65q2 -12 7 -19t18 -7zM271 397q-9 11 -21.5 17.5t-27.5 6.5q-22 0 -44 -16
q-23 -17 -46 -58.5t-42.5 -92t-31.5 -100t-12 -81.5q0 -13 3.5 -22t13.5 -9q7 0 20.5 17t31 45t37.5 64.5t40.5 76l41 79t37.5 73.5z" />
    <glyph glyph-name="atilde" unicode="&#xe3;" 
d="M305 547q3 -28 -10 -40t-34 -12q-29 -2 -55.5 9.5t-53.5 20.5q-6 2 -13 1.5t-13 -3t-9.5 -7.5t-2.5 -12q0 -2 -4.5 -1.5t-6.5 5.5q-2 17 7 29t26 16q13 3 30 -1t34.5 -10.5t35.5 -13t34 -7.5q9 0 13.5 2.5t6.5 6.5t2.5 8.5t2.5 7.5l4 2q3 2 6 -1zM320 47q8 0 24 21.5
t37.5 58t47.5 86t53 105.5q11 23 22.5 36t22.5 11q10 -2 11 -14.5t-7 -31.5q-25 -54 -53 -110.5t-55 -103t-50 -77t-38 -30.5q-75 0 -113 32t-36 104q-30 -55 -57 -93.5t-44 -39.5q-8 0 -23.5 2t-30.5 6q-50 10 -72.5 50.5t-22.5 95.5q0 52 18 109.5t49.5 105.5t75 79
t93.5 31q42 0 69.5 -15.5t43.5 -29.5q1 3 5 13t-1 16q-1 1 1.5 2.5t6.5 1.5q13 1 31 -2t34.5 -10.5t28.5 -19t12 -26.5q0 -9 -4 -17q-12 -28 -30.5 -73t-36 -92.5t-29 -89.5t-8.5 -65q2 -12 7 -19t18 -7zM271 397q-9 11 -21.5 17.5t-27.5 6.5q-22 0 -44 -16
q-23 -17 -46 -58.5t-42.5 -92t-31.5 -100t-12 -81.5q0 -13 3.5 -22t13.5 -9q7 0 20.5 17t31 45t37.5 64.5t40.5 76l41 79t37.5 73.5z" />
    <glyph glyph-name="adieresis" unicode="&#xe4;" 
d="M128 537q-3 8 -0.5 16t6.5 16t6.5 14.5t-0.5 11.5q-1 1 10 1.5t23.5 -1.5t21.5 -7.5t6 -17.5q-2 -8 -5 -16.5t-5.5 -15.5t-3.5 -12t1 -6q-24 -5 -40 -0.5t-20 17.5zM234 537q-2 8 0.5 16t6 16t6 14.5t-0.5 11.5q-1 1 10 1.5t23.5 -1.5t22 -7.5t6.5 -17.5
q-2 -8 -5.5 -16.5t-6 -15.5t-3.5 -12t1 -6q-23 -5 -39.5 -0.5t-20.5 17.5zM320 47q8 0 24 21.5t37.5 58t47.5 86t53 105.5q11 23 22.5 36t22.5 11q10 -2 11 -14.5t-7 -31.5q-25 -54 -53 -110.5t-55 -103t-50 -77t-38 -30.5q-75 0 -113 32t-36 104q-30 -55 -57 -93.5
t-44 -39.5q-8 0 -23.5 2t-30.5 6q-50 10 -72.5 50.5t-22.5 95.5q0 52 18 109.5t49.5 105.5t75 79t93.5 31q42 0 69.5 -15.5t43.5 -29.5q1 3 5 13t-1 16q-1 1 1.5 2.5t6.5 1.5q13 1 31 -2t34.5 -10.5t28.5 -19t12 -26.5q0 -9 -4 -17q-12 -28 -30.5 -73t-36 -92.5t-29 -89.5
t-8.5 -65q2 -12 7 -19t18 -7zM271 397q-9 11 -21.5 17.5t-27.5 6.5q-22 0 -44 -16q-23 -17 -46 -58.5t-42.5 -92t-31.5 -100t-12 -81.5q0 -13 3.5 -22t13.5 -9q7 0 20.5 17t31 45t37.5 64.5t40.5 76l41 79t37.5 73.5z" />
    <glyph glyph-name="aring" unicode="&#xe5;" 
d="M257 614q7 0 18.5 -7.5t11.5 -12.5q23 0 38 -16t11 -37q-6 -34 -20 -49.5t-35 -20.5q-13 -3 -29 -0.5t-29.5 10.5t-23 21t-10.5 30q0 18 7.5 33t18 26t22.5 17t20 6zM308 554q1 7 -4.5 15t-14 13.5t-18 7t-16.5 -5.5q-14 -14 -24 -31t-12 -32t4.5 -25t25.5 -10
q16 0 27 6.5t17.5 17t9.5 22t5 22.5zM320 47q8 0 24 21.5t37.5 58t47.5 86t53 105.5q11 23 22.5 36t22.5 11q10 -2 11 -14.5t-7 -31.5q-25 -54 -53 -110.5t-55 -103t-50 -77t-38 -30.5q-75 0 -113 32t-36 104q-30 -55 -57 -93.5t-44 -39.5q-8 0 -23.5 2t-30.5 6
q-50 10 -72.5 50.5t-22.5 95.5q0 52 18 109.5t49.5 105.5t75 79t93.5 31q42 0 69.5 -15.5t43.5 -29.5q1 3 5 13t-1 16q-1 1 1.5 2.5t6.5 1.5q13 1 31 -2t34.5 -10.5t28.5 -19t12 -26.5q0 -9 -4 -17q-12 -28 -30.5 -73t-36 -92.5t-29 -89.5t-8.5 -65q2 -12 7 -19t18 -7z
M271 397q-9 11 -21.5 17.5t-27.5 6.5q-22 0 -44 -16q-23 -17 -46 -58.5t-42.5 -92t-31.5 -100t-12 -81.5q0 -13 3.5 -22t13.5 -9q7 0 20.5 17t31 45t37.5 64.5t40.5 76l41 79t37.5 73.5z" />
    <glyph glyph-name="ae" unicode="&#xe6;" horiz-adv-x="656" 
d="M686 319q-10 -22 -25.5 -55t-35 -69t-41.5 -72t-45.5 -65t-47 -47t-46.5 -18h-58t-60.5 3.5t-56.5 11.5t-47 23.5t-30 40.5t-7 62q-30 -55 -57 -93.5t-44 -39.5q-8 0 -23.5 2t-30.5 6q-50 10 -72.5 50.5t-22.5 95.5q0 52 18 109.5t49.5 105.5t75 79t93.5 31
q42 0 69.5 -15.5t43.5 -29.5q1 3 5 13t-1 16q-1 1 1.5 2.5t6.5 1.5q17 2 43.5 -4.5t43.5 -20.5q22 18 45.5 28.5t49.5 10.5q45 0 72 -27.5t27 -69.5q0 -36 -15 -63t-40 -47t-58.5 -33.5t-70.5 -21.5q-11 -32 -16.5 -63t-5.5 -57q0 -19 4.5 -31.5t11.5 -20t15.5 -10.5
t16.5 -3q20 0 41 15t42 39.5t40.5 55.5t37 62.5t32 60.5t24.5 50q3 5 7 13t9.5 15.5t12.5 13t15 5.5t10.5 -6.5t1.5 -14.5t-3.5 -15t-3.5 -10zM271 397q-9 11 -21.5 17.5t-27.5 6.5q-22 0 -44 -16q-23 -17 -46 -58.5t-42.5 -92t-31.5 -100t-12 -81.5q0 -13 3.5 -22t13.5 -9
q7 0 20.5 17t31 45t37.5 64.5t40.5 76l41 79t37.5 73.5zM412 270q19 7 39 19.5t36 29t26.5 35.5t10.5 39q0 10 -3.5 16.5t-10.5 6.5q-18 0 -45 -40t-53 -106z" />
    <glyph glyph-name="ccedilla" unicode="&#xe7;" horiz-adv-x="317" 
d="M346 319q-11 -23 -26.5 -56t-34 -69t-39.5 -71.5t-43.5 -64t-45.5 -46t-46 -17.5q-7 0 -13.5 0.5t-12.5 0.5q-2 -9 5 -11q19 -5 29 -14.5t14 -20.5t1.5 -22.5t-8.5 -19.5q-11 -14 -24.5 -19.5t-27.5 -5t-28 7.5t-26 19q1 4 0 13.5t4 9.5q3 0 10.5 -5t17 -10.5t18.5 -8
t14 2.5q3 3 6 8.5t4.5 12.5t0.5 14.5t-6 12.5t-20 10t-19 9q-5 4 -5.5 10.5t1.5 12.5q-60 14 -85 54.5t-25 98.5q0 60 20.5 118.5t52.5 104.5t72.5 74.5t80.5 28.5q15 0 30 -3.5t28 -10.5t22.5 -19t13.5 -28q2 -12 1.5 -25t-5.5 -24.5t-15 -19t-26 -8.5q-8 -1 -13.5 1.5
t-6.5 6.5q5 2 9 14t4 26q0 11 -3 18.5t-11 7.5q-12 0 -34.5 -29.5t-45 -76t-39 -102.5t-16.5 -110q0 -29 11.5 -45.5t31.5 -17.5q14 0 31.5 15t36 39.5t37.5 55t36.5 62t32 60.5t25.5 50q3 5 7 13.5t10 16t13 13t15 4.5q11 -2 11 -18q0 -5 -2 -13.5t-5 -14.5z" />
    <glyph glyph-name="egrave" unicode="&#xe8;" horiz-adv-x="336" 
d="M249 492q-9 -5 -19 -5q-19 0 -32 17t-30 42q-2 3 -7.5 5t-11 3t-10 2t-4.5 3q0 26 9.5 35.5t22.5 9.5q6 0 20 -7.5t22 -25.5q14 -32 20 -49.5t20 -29.5zM366 319q-10 -22 -25.5 -55t-35 -69t-41.5 -72t-45.5 -65t-47 -47t-46.5 -18q-52 0 -87.5 11t-58 32t-32.5 52
t-10 70q0 52 18 109.5t48.5 105t71 78.5t84.5 31q45 0 72 -27.5t27 -69.5q0 -36 -15 -63t-40 -47t-58.5 -33.5t-70.5 -21.5q-11 -32 -16.5 -63t-5.5 -57q0 -19 4.5 -31.5t11.5 -20t15.5 -10.5t16.5 -3q20 0 41 15t42 39.5t40.5 55.5t37 62.5t32 60.5t24.5 50q3 5 7 13
t9.5 15.5t12.5 13t15 5.5t10.5 -6.5t1.5 -14.5t-3.5 -15t-3.5 -10zM92 270q19 7 39 19.5t36 29t26.5 35.5t10.5 39q0 10 -3.5 16.5t-10.5 6.5q-18 0 -45 -40t-53 -106z" />
    <glyph glyph-name="eacute" unicode="&#xe9;" horiz-adv-x="336" 
d="M88 506q9 3 16 7t14.5 11t16.5 16t22 21q16 13 31.5 13.5t20.5 -1.5q12 -5 17 -17.5t-6 -36.5q-1 -2 -5.5 -1t-10 2t-11.5 2t-9 -1q-26 -15 -45 -25.5t-36 -2.5q-4 2 -7.5 5t-7.5 8zM366 319q-10 -22 -25.5 -55t-35 -69t-41.5 -72t-45.5 -65t-47 -47t-46.5 -18
q-52 0 -87.5 11t-58 32t-32.5 52t-10 70q0 52 18 109.5t48.5 105t71 78.5t84.5 31q45 0 72 -27.5t27 -69.5q0 -36 -15 -63t-40 -47t-58.5 -33.5t-70.5 -21.5q-11 -32 -16.5 -63t-5.5 -57q0 -19 4.5 -31.5t11.5 -20t15.5 -10.5t16.5 -3q20 0 41 15t42 39.5t40.5 55.5t37 62.5
t32 60.5t24.5 50q3 5 7 13t9.5 15.5t12.5 13t15 5.5t10.5 -6.5t1.5 -14.5t-3.5 -15t-3.5 -10zM92 270q19 7 39 19.5t36 29t26.5 35.5t10.5 39q0 10 -3.5 16.5t-10.5 6.5q-18 0 -45 -40t-53 -106z" />
    <glyph glyph-name="ecircumflex" unicode="&#xea;" horiz-adv-x="336" 
d="M96 543q14 14 29 22t26 17q7 5 8.5 11t5.5 8q4 3 7.5 2.5t5.5 -2.5q2 -3 3 -6.5t5 -8.5q11 -12 29.5 -24t25.5 -20q17 -22 -16 -45q0 16 -8 23.5t-18 12.5t-19 11t-11 18q-6 -13 -17 -19.5t-21.5 -12t-18 -12.5t-5.5 -21q-19 14 -20.5 24t9.5 22zM366 319
q-10 -22 -25.5 -55t-35 -69t-41.5 -72t-45.5 -65t-47 -47t-46.5 -18q-52 0 -87.5 11t-58 32t-32.5 52t-10 70q0 52 18 109.5t48.5 105t71 78.5t84.5 31q45 0 72 -27.5t27 -69.5q0 -36 -15 -63t-40 -47t-58.5 -33.5t-70.5 -21.5q-11 -32 -16.5 -63t-5.5 -57q0 -19 4.5 -31.5
t11.5 -20t15.5 -10.5t16.5 -3q20 0 41 15t42 39.5t40.5 55.5t37 62.5t32 60.5t24.5 50q3 5 7 13t9.5 15.5t12.5 13t15 5.5t10.5 -6.5t1.5 -14.5t-3.5 -15t-3.5 -10zM92 270q19 7 39 19.5t36 29t26.5 35.5t10.5 39q0 10 -3.5 16.5t-10.5 6.5q-18 0 -45 -40t-53 -106z" />
    <glyph glyph-name="edieresis" unicode="&#xeb;" horiz-adv-x="336" 
d="M74 520q-3 8 -0.5 16t6.5 16t6.5 14.5t-0.5 11.5q-1 1 10 1.5t23.5 -1.5t21.5 -7.5t6 -17.5q-2 -8 -5 -16.5t-5.5 -15.5t-3.5 -12t1 -6q-24 -5 -40 -0.5t-20 17.5zM180 520q-2 8 0.5 16t6 16t6 14.5t-0.5 11.5q-1 1 10 1.5t23.5 -1.5t22 -7.5t6.5 -17.5q-2 -8 -5.5 -16.5
t-6 -15.5t-3.5 -12t1 -6q-23 -5 -39.5 -0.5t-20.5 17.5zM366 319q-10 -22 -25.5 -55t-35 -69t-41.5 -72t-45.5 -65t-47 -47t-46.5 -18q-52 0 -87.5 11t-58 32t-32.5 52t-10 70q0 52 18 109.5t48.5 105t71 78.5t84.5 31q45 0 72 -27.5t27 -69.5q0 -36 -15 -63t-40 -47
t-58.5 -33.5t-70.5 -21.5q-11 -32 -16.5 -63t-5.5 -57q0 -19 4.5 -31.5t11.5 -20t15.5 -10.5t16.5 -3q20 0 41 15t42 39.5t40.5 55.5t37 62.5t32 60.5t24.5 50q3 5 7 13t9.5 15.5t12.5 13t15 5.5t10.5 -6.5t1.5 -14.5t-3.5 -15t-3.5 -10zM92 270q19 7 39 19.5t36 29
t26.5 35.5t10.5 39q0 10 -3.5 16.5t-10.5 6.5q-18 0 -45 -40t-53 -106z" />
    <glyph glyph-name="igrave" unicode="&#xec;" horiz-adv-x="241" 
d="M142 492q-9 -5 -19 -5q-19 0 -32 17t-30 42q-2 3 -7.5 5t-11 3t-10 2t-4.5 3q0 26 9.5 35.5t22.5 9.5q6 0 20 -7.5t22 -25.5q14 -32 20 -49.5t20 -29.5zM60 47q8 0 24 21.5t37.5 58t47.5 86t53 105.5q11 23 22.5 36t22.5 11q10 -2 11 -14.5t-7 -31.5q-25 -54 -53 -110.5
t-54.5 -103t-49.5 -76.5t-38 -30q-73 0 -110.5 33.5t-37.5 91.5q0 26 8.5 59.5t22 70.5t29 75.5t28.5 76.5q0 14 -8.5 18t-16.5 -1q6 12 20 17t31 4t34.5 -7.5t31 -16.5t20.5 -23t2 -28q-4 -13 -14 -37t-22 -53.5t-24.5 -61.5t-21.5 -61.5t-12.5 -53.5t2.5 -37q3 -8 7 -13.5
t15 -4.5z" />
    <glyph glyph-name="iacute" unicode="&#xed;" horiz-adv-x="241" 
d="M28 492q14 12 20 29.5t20 49.5q8 18 22 25.5t20 7.5q13 0 22.5 -9.5t9.5 -35.5q0 -2 -4.5 -3t-10 -2t-11 -3t-7.5 -5q-17 -25 -30 -42t-32 -17q-10 0 -19 5zM60 47q8 0 24 21.5t37.5 58t47.5 86t53 105.5q11 23 22.5 36t22.5 11q10 -2 11 -14.5t-7 -31.5
q-25 -54 -53 -110.5t-54.5 -103t-49.5 -76.5t-38 -30q-73 0 -110.5 33.5t-37.5 91.5q0 26 8.5 59.5t22 70.5t29 75.5t28.5 76.5q0 14 -8.5 18t-16.5 -1q6 12 20 17t31 4t34.5 -7.5t31 -16.5t20.5 -23t2 -28q-4 -13 -14 -37t-22 -53.5t-24.5 -61.5t-21.5 -61.5t-12.5 -53.5
t2.5 -37q3 -8 7 -13.5t15 -4.5z" />
    <glyph glyph-name="icircumflex" unicode="&#xee;" horiz-adv-x="241" 
d="M8 503q14 14 29 22t26 17q7 5 8.5 11t5.5 8q4 3 7.5 2.5t5.5 -2.5q2 -3 3 -6.5t5 -8.5q11 -12 29.5 -24t25.5 -20q17 -22 -16 -45q0 16 -8 23.5t-18 12.5t-19 11t-11 18q-6 -13 -17 -19.5t-21.5 -12t-18 -12.5t-5.5 -21q-19 14 -20.5 24t9.5 22zM60 47q8 0 24 21.5
t37.5 58t47.5 86t53 105.5q11 23 22.5 36t22.5 11q10 -2 11 -14.5t-7 -31.5q-25 -54 -53 -110.5t-54.5 -103t-49.5 -76.5t-38 -30q-73 0 -110.5 33.5t-37.5 91.5q0 26 8.5 59.5t22 70.5t29 75.5t28.5 76.5q0 14 -8.5 18t-16.5 -1q6 12 20 17t31 4t34.5 -7.5t31 -16.5
t20.5 -23t2 -28q-4 -13 -14 -37t-22 -53.5t-24.5 -61.5t-21.5 -61.5t-12.5 -53.5t2.5 -37q3 -8 7 -13.5t15 -4.5z" />
    <glyph glyph-name="idieresis" unicode="&#xef;" horiz-adv-x="241" 
d="M-16 489q-3 8 -0.5 16t6.5 16t6.5 14.5t-0.5 11.5q-1 1 10 1.5t23.5 -1.5t21.5 -7.5t6 -17.5q-2 -8 -5 -16.5t-5.5 -15.5t-3.5 -12t1 -6q-24 -5 -40 -0.5t-20 17.5zM90 489q-2 8 0.5 16t6 16t6 14.5t-0.5 11.5q-1 1 10 1.5t23.5 -1.5t22 -7.5t6.5 -17.5q-2 -8 -5.5 -16.5
t-6 -15.5t-3.5 -12t1 -6q-23 -5 -39.5 -0.5t-20.5 17.5zM60 47q8 0 24 21.5t37.5 58t47.5 86t53 105.5q11 23 22.5 36t22.5 11q10 -2 11 -14.5t-7 -31.5q-25 -54 -53 -110.5t-54.5 -103t-49.5 -76.5t-38 -30q-73 0 -110.5 33.5t-37.5 91.5q0 26 8.5 59.5t22 70.5t29 75.5
t28.5 76.5q0 14 -8.5 18t-16.5 -1q6 12 20 17t31 4t34.5 -7.5t31 -16.5t20.5 -23t2 -28q-4 -13 -14 -37t-22 -53.5t-24.5 -61.5t-21.5 -61.5t-12.5 -53.5t2.5 -37q3 -8 7 -13.5t15 -4.5z" />
    <glyph glyph-name="ntilde" unicode="&#xf1;" horiz-adv-x="489" 
d="M305 547q3 -28 -10 -40t-34 -12q-29 -2 -55.5 9.5t-53.5 20.5q-6 2 -13 1.5t-13 -3t-9.5 -7.5t-2.5 -12q0 -2 -4.5 -1.5t-6.5 5.5q-2 17 7 29t26 16q13 3 30 -1t34.5 -10.5t35.5 -13t34 -7.5q9 0 13.5 2.5t6.5 6.5t2.5 8.5t2.5 7.5l4 2q3 2 6 -1zM309 45q8 0 24 21.5
t37.5 59t47 87t52.5 105.5q11 23 22.5 36t22.5 11q10 -2 11 -14.5t-7 -31.5q-25 -54 -53 -110.5t-54.5 -103t-49.5 -77t-38 -30.5q-77 0 -116 42t-29 108q4 28 13.5 59.5t20 62t21.5 57.5t18 45q1 3 1 8q0 6 -3 5q-2 -1 -16 -28.5t-34.5 -68t-44 -88t-45 -89.5t-37.5 -71.5
t-22 -34.5q-23 0 -44.5 5t-38 16.5t-26.5 30.5t-10 47q0 27 9.5 68t23 87t29 93t26.5 85q2 7 3.5 15.5t1.5 13.5q0 2 -0.5 3.5t-0.5 2.5t10 1q11 0 28.5 -2t34.5 -8t29 -15.5t12 -24.5q0 -3 -6.5 -23.5t-16.5 -50t-21 -65.5t-21 -69.5t-16.5 -61t-6.5 -41.5q0 -2 0.5 -3
t0.5 -3q13 21 30 51t34.5 63t35.5 66.5t33 62.5t26 51t15 31q6 13 7 25t-1 14q2 2 11 3t14 1q14 0 36.5 -3t43.5 -10.5t36.5 -20.5t15.5 -34q0 -6 -6 -24t-16 -43.5t-21.5 -56.5t-23 -63t-20.5 -62.5t-13 -55.5q-5 -34 2.5 -45t18.5 -11z" />
    <glyph glyph-name="ograve" unicode="&#xf2;" horiz-adv-x="439" 
d="M201 492q-9 -5 -19 -5q-19 0 -32 17t-30 42q-2 3 -7.5 5t-11 3t-10 2t-4.5 3q0 26 9.5 35.5t22.5 9.5q6 0 20 -7.5t22 -25.5q14 -32 20 -49.5t20 -29.5zM-59 154q0 46 15.5 102.5t44.5 105.5t71 82.5t95 33.5q24 0 41.5 -7.5t28 -17.5t15.5 -20.5t5 -17.5q0 13 -4.5 26.5
t-11.5 24.5t-16 18t-19 8q9 16 23 25.5t30 9.5q19 0 33 -12.5t23.5 -33t14.5 -47.5t5 -55q0 -63 -18 -130.5t-50 -123t-78 -91.5t-101 -36q-31 0 -58 11t-46.5 31t-31 49t-11.5 65zM262 370q-6 -19 -18 -26t-23 -7q-9 0 -16 3t-9 8q6 2 10.5 15t4.5 27q0 10 -3 17t-10 7
q-10 0 -24.5 -15t-30 -40t-31.5 -57.5t-28.5 -68.5t-20 -72.5t-7.5 -68.5q0 -26 7.5 -44.5t27.5 -18.5q27 0 57 34t55.5 85t42 111t16.5 111z" />
    <glyph glyph-name="oacute" unicode="&#xf3;" horiz-adv-x="439" 
d="M88 497q17 8 28 23t33 42q13 15 28.5 18.5t21.5 1.5q12 -4 19 -15.5t-1 -37.5q-2 -3 -15.5 -0.5t-20.5 -2.5q-23 -19 -40.5 -31.5t-35.5 -7.5q-5 2 -8.5 3.5t-8.5 6.5zM-59 154q0 46 15.5 102.5t44.5 105.5t71 82.5t95 33.5q24 0 41.5 -7.5t28 -17.5t15.5 -20.5t5 -17.5
q0 13 -4.5 26.5t-11.5 24.5t-16 18t-19 8q9 16 23 25.5t30 9.5q19 0 33 -12.5t23.5 -33t14.5 -47.5t5 -55q0 -63 -18 -130.5t-50 -123t-78 -91.5t-101 -36q-31 0 -58 11t-46.5 31t-31 49t-11.5 65zM262 370q-6 -19 -18 -26t-23 -7q-9 0 -16 3t-9 8q6 2 10.5 15t4.5 27
q0 10 -3 17t-10 7q-10 0 -24.5 -15t-30 -40t-31.5 -57.5t-28.5 -68.5t-20 -72.5t-7.5 -68.5q0 -26 7.5 -44.5t27.5 -18.5q27 0 57 34t55.5 85t42 111t16.5 111z" />
    <glyph glyph-name="ocircumflex" unicode="&#xf4;" horiz-adv-x="439" 
d="M66 543q14 14 29 22t26 17q7 5 8.5 11t5.5 8q4 3 7.5 2.5t5.5 -2.5q2 -3 3 -6.5t5 -8.5q11 -12 29.5 -24t25.5 -20q17 -22 -16 -45q0 16 -8 23.5t-18 12.5t-19 11t-11 18q-6 -13 -17 -19.5t-21.5 -12t-18 -12.5t-5.5 -21q-19 14 -20.5 24t9.5 22zM-59 154
q0 46 15.5 102.5t44.5 105.5t71 82.5t95 33.5q24 0 41.5 -7.5t28 -17.5t15.5 -20.5t5 -17.5q0 13 -4.5 26.5t-11.5 24.5t-16 18t-19 8q9 16 23 25.5t30 9.5q19 0 33 -12.5t23.5 -33t14.5 -47.5t5 -55q0 -63 -18 -130.5t-50 -123t-78 -91.5t-101 -36q-31 0 -58 11t-46.5 31
t-31 49t-11.5 65zM262 370q-6 -19 -18 -26t-23 -7q-9 0 -16 3t-9 8q6 2 10.5 15t4.5 27q0 10 -3 17t-10 7q-10 0 -24.5 -15t-30 -40t-31.5 -57.5t-28.5 -68.5t-20 -72.5t-7.5 -68.5q0 -26 7.5 -44.5t27.5 -18.5q27 0 57 34t55.5 85t42 111t16.5 111z" />
    <glyph glyph-name="otilde" unicode="&#xf5;" horiz-adv-x="439" 
d="M241 571q3 -28 -10 -40t-34 -12q-29 -2 -55.5 9.5t-53.5 20.5q-6 2 -13 1.5t-13 -3t-9.5 -7.5t-2.5 -12q0 -2 -4.5 -1.5t-6.5 5.5q-2 17 7 29t26 16q13 3 30 -1t34.5 -10.5t35.5 -13t34 -7.5q9 0 13.5 2.5t6.5 6.5t2.5 8.5t2.5 7.5l4 2q3 2 6 -1zM-59 154
q0 46 15.5 102.5t44.5 105.5t71 82.5t95 33.5q24 0 41.5 -7.5t28 -17.5t15.5 -20.5t5 -17.5q0 13 -4.5 26.5t-11.5 24.5t-16 18t-19 8q9 16 23 25.5t30 9.5q19 0 33 -12.5t23.5 -33t14.5 -47.5t5 -55q0 -63 -18 -130.5t-50 -123t-78 -91.5t-101 -36q-31 0 -58 11t-46.5 31
t-31 49t-11.5 65zM262 370q-6 -19 -18 -26t-23 -7q-9 0 -16 3t-9 8q6 2 10.5 15t4.5 27q0 10 -3 17t-10 7q-10 0 -24.5 -15t-30 -40t-31.5 -57.5t-28.5 -68.5t-20 -72.5t-7.5 -68.5q0 -26 7.5 -44.5t27.5 -18.5q27 0 57 34t55.5 85t42 111t16.5 111z" />
    <glyph glyph-name="odieresis" unicode="&#xf6;" horiz-adv-x="439" 
d="M50 537q-3 8 -0.5 16t6.5 16t6.5 14.5t-0.5 11.5q-1 1 10 1.5t23.5 -1.5t21.5 -7.5t6 -17.5q-2 -8 -5 -16.5t-5.5 -15.5t-3.5 -12t1 -6q-24 -5 -40 -0.5t-20 17.5zM156 537q-2 8 0.5 16t6 16t6 14.5t-0.5 11.5q-1 1 10 1.5t23.5 -1.5t22 -7.5t6.5 -17.5q-2 -8 -5.5 -16.5
t-6 -15.5t-3.5 -12t1 -6q-23 -5 -39.5 -0.5t-20.5 17.5zM-59 154q0 46 15.5 102.5t44.5 105.5t71 82.5t95 33.5q24 0 41.5 -7.5t28 -17.5t15.5 -20.5t5 -17.5q0 13 -4.5 26.5t-11.5 24.5t-16 18t-19 8q9 16 23 25.5t30 9.5q19 0 33 -12.5t23.5 -33t14.5 -47.5t5 -55
q0 -63 -18 -130.5t-50 -123t-78 -91.5t-101 -36q-31 0 -58 11t-46.5 31t-31 49t-11.5 65zM262 370q-6 -19 -18 -26t-23 -7q-9 0 -16 3t-9 8q6 2 10.5 15t4.5 27q0 10 -3 17t-10 7q-10 0 -24.5 -15t-30 -40t-31.5 -57.5t-28.5 -68.5t-20 -72.5t-7.5 -68.5q0 -26 7.5 -44.5
t27.5 -18.5q27 0 57 34t55.5 85t42 111t16.5 111z" />
    <glyph glyph-name="divide" unicode="&#xf7;" horiz-adv-x="491" 
d="M171 57q-4 13 -0.5 26.5t8.5 26t8.5 23.5t-0.5 19q-1 2 13.5 3t32 -2.5t30.5 -13t8 -28.5q-3 -13 -7 -26.5t-7.5 -25t-5 -20t1.5 -10.5q-32 -8 -54.5 -0.5t-27.5 28.5zM226 363q-4 13 -0.5 26t8.5 26t8.5 24t-0.5 19q-1 1 13.5 2t32 -2.5t30.5 -12.5t8 -28
q-3 -13 -7 -26.5t-7.5 -25t-5.5 -20t1 -10.5q-32 -8 -54 -0.5t-27 28.5zM429 268q7 -20 6.5 -32t-7 -19t-18 -9t-25.5 -2q-44 1 -73.5 1.5t-52.5 1t-42.5 1.5t-42 1t-51.5 -1t-71 -2q-2 29 6 42.5t22 18.5t32.5 4t37.5 -1q21 0 60.5 -1t82.5 -2t80.5 -2t55.5 1z" />
    <glyph glyph-name="oslash" unicode="&#xf8;" horiz-adv-x="439" 
d="M-59 154q0 46 15.5 102.5t44.5 105.5t71 82.5t95 33.5q32 0 51.5 -12t28.5 -26q4 -2 6 -2q-5 20 -18.5 36t-28.5 18q9 16 23 25.5t30 9.5q19 0 33 -12.5t23.5 -33t14.5 -47.5t5 -55q0 -53 -12.5 -109t-35.5 -106t-56 -90t-74 -60l-15 -61q-27 5 -36.5 16.5t-9.5 26.5v3
q-2 0 -4 -0.5t-4 -0.5q-31 0 -58 11t-46.5 31t-31 49t-11.5 65zM110 57q21 73 36 123t25 83.5t16.5 54t10.5 33.5t7 22.5t6 21.5q-1 8 -4 13.5t-9 5.5q-10 0 -24.5 -15t-30 -40t-31.5 -57.5t-28.5 -68.5t-20 -72t-7.5 -69q0 -26 7.5 -44.5t27.5 -18.5q7 0 11 1q2 7 4 13.5
t4 13.5zM262 370q-1 -1 -1 -4q-20 -69 -39 -129.5t-37 -122.5q16 27 30 59t24.5 65.5t16.5 67.5t6 64z" />
    <glyph glyph-name="ugrave" unicode="&#xf9;" horiz-adv-x="492" 
d="M257 472q-9 -5 -19 -5q-19 0 -32 17t-30 42q-2 3 -7.5 5t-11 3t-10 2t-4.5 3q0 26 9.5 35.5t22.5 9.5q6 0 20 -7.5t22 -25.5q14 -32 20 -49.5t20 -29.5zM312 45q8 0 24 21.5t37.5 59t47 87t52.5 105.5q11 23 22.5 36t22.5 11q10 -2 11 -14.5t-7 -31.5q-25 -54 -53 -110.5
t-54.5 -103t-49.5 -77t-38 -30.5q-75 0 -113 35t-33 103q-15 -27 -29 -51.5t-27 -42.5t-24.5 -29t-19.5 -11t-28 2.5t-34 7.5q-35 12 -55 30.5t-28.5 41.5t-6.5 51t12 59q11 35 27.5 80.5t32.5 87t27.5 73.5t12.5 40q0 9 17 6.5t37 -11.5t36.5 -23t16.5 -30q0 -4 -1 -8
t-3 -9q-6 -16 -16 -41t-21.5 -55t-23 -63t-21 -64t-15.5 -58t-6 -45q0 -11 4 -19.5t13 -8.5q10 0 31 28.5t46.5 72t52.5 95.5t49.5 98.5t37 81.5t14.5 45v4q0 2 10 2t27 -3t33.5 -10t28.5 -17.5t12 -25.5q0 -9 -4 -17q-11 -23 -27 -62.5t-31.5 -83t-29 -86.5t-18.5 -74
q-4 -30 3.5 -39.5t18.5 -9.5z" />
    <glyph glyph-name="uacute" unicode="&#xfa;" horiz-adv-x="492" 
d="M312 45q8 0 24 21.5t37.5 59t47 87t52.5 105.5q11 23 22.5 36t22.5 11q10 -2 11 -14.5t-7 -31.5q-25 -54 -53 -110.5t-54.5 -103t-49.5 -77t-38 -30.5q-75 0 -113 35t-33 103q-15 -27 -29 -51.5t-27 -42.5t-24.5 -29t-19.5 -11t-28 2.5t-34 7.5q-35 12 -55 30.5
t-28.5 41.5t-6.5 51t12 59q11 35 27.5 80.5t32.5 87t27.5 73.5t12.5 40q0 9 17 6.5t37 -11.5t36.5 -23t16.5 -30q0 -4 -1 -8t-3 -9q-6 -16 -16 -41t-21.5 -55t-23 -63t-21 -64t-15.5 -58t-6 -45q0 -11 4 -19.5t13 -8.5q10 0 31 28.5t46.5 72t52.5 95.5t49.5 98.5t37 81.5
t14.5 45v4q0 2 10 2t27 -3t33.5 -10t28.5 -17.5t12 -25.5q0 -9 -4 -17q-11 -23 -27 -62.5t-31.5 -83t-29 -86.5t-18.5 -74q-4 -30 3.5 -39.5t18.5 -9.5zM149 506q18 5 31.5 17.5t39.5 35.5q16 13 31.5 13t20.5 -2q12 -6 16.5 -18.5t-7.5 -36.5q-1 -2 -5 -0.5t-9.5 3t-11.5 2
t-9 -1.5q-26 -14 -45.5 -23.5t-36.5 -1.5q-8 3 -15 13z" />
    <glyph glyph-name="ucircumflex" unicode="&#xfb;" horiz-adv-x="492" 
d="M143 543q14 14 29 22t26 17q7 5 8.5 11t5.5 8q4 3 7.5 2.5t5.5 -2.5q2 -3 3 -6.5t5 -8.5q11 -12 29.5 -24t25.5 -20q17 -22 -16 -45q0 16 -8 23.5t-18 12.5t-19 11t-11 18q-6 -13 -17 -19.5t-21.5 -12t-18 -12.5t-5.5 -21q-19 14 -20.5 24t9.5 22zM312 45q8 0 24 21.5
t37.5 59t47 87t52.5 105.5q11 23 22.5 36t22.5 11q10 -2 11 -14.5t-7 -31.5q-25 -54 -53 -110.5t-54.5 -103t-49.5 -77t-38 -30.5q-75 0 -113 35t-33 103q-15 -27 -29 -51.5t-27 -42.5t-24.5 -29t-19.5 -11t-28 2.5t-34 7.5q-35 12 -55 30.5t-28.5 41.5t-6.5 51t12 59
q11 35 27.5 80.5t32.5 87t27.5 73.5t12.5 40q0 9 17 6.5t37 -11.5t36.5 -23t16.5 -30q0 -4 -1 -8t-3 -9q-6 -16 -16 -41t-21.5 -55t-23 -63t-21 -64t-15.5 -58t-6 -45q0 -11 4 -19.5t13 -8.5q10 0 31 28.5t46.5 72t52.5 95.5t49.5 98.5t37 81.5t14.5 45v4q0 2 10 2t27 -3
t33.5 -10t28.5 -17.5t12 -25.5q0 -9 -4 -17q-11 -23 -27 -62.5t-31.5 -83t-29 -86.5t-18.5 -74q-4 -30 3.5 -39.5t18.5 -9.5z" />
    <glyph glyph-name="udieresis" unicode="&#xfc;" horiz-adv-x="492" 
d="M128 525q-3 8 -0.5 16t6.5 16t6.5 14.5t-0.5 11.5q-1 1 10 1.5t23.5 -1.5t21.5 -7.5t6 -17.5q-2 -8 -5 -16.5t-5.5 -15.5t-3.5 -12t1 -6q-24 -5 -40 -0.5t-20 17.5zM234 525q-2 8 0.5 16t6 16t6 14.5t-0.5 11.5q-1 1 10 1.5t23.5 -1.5t22 -7.5t6.5 -17.5
q-2 -8 -5.5 -16.5t-6 -15.5t-3.5 -12t1 -6q-23 -5 -39.5 -0.5t-20.5 17.5zM312 45q8 0 24 21.5t37.5 59t47 87t52.5 105.5q11 23 22.5 36t22.5 11q10 -2 11 -14.5t-7 -31.5q-25 -54 -53 -110.5t-54.5 -103t-49.5 -77t-38 -30.5q-75 0 -113 35t-33 103q-15 -27 -29 -51.5
t-27 -42.5t-24.5 -29t-19.5 -11t-28 2.5t-34 7.5q-35 12 -55 30.5t-28.5 41.5t-6.5 51t12 59q11 35 27.5 80.5t32.5 87t27.5 73.5t12.5 40q0 9 17 6.5t37 -11.5t36.5 -23t16.5 -30q0 -4 -1 -8t-3 -9q-6 -16 -16 -41t-21.5 -55t-23 -63t-21 -64t-15.5 -58t-6 -45
q0 -11 4 -19.5t13 -8.5q10 0 31 28.5t46.5 72t52.5 95.5t49.5 98.5t37 81.5t14.5 45v4q0 2 10 2t27 -3t33.5 -10t28.5 -17.5t12 -25.5q0 -9 -4 -17q-11 -23 -27 -62.5t-31.5 -83t-29 -86.5t-18.5 -74q-4 -30 3.5 -39.5t18.5 -9.5z" />
    <glyph glyph-name="yacute" unicode="&#xfd;" horiz-adv-x="487" 
d="M150 473q17 8 27.5 23t31.5 43q13 15 28.5 18.5t21.5 1.5q12 -3 19 -14.5t0 -36.5q-1 -2 -5.5 -2t-10 0.5t-11.5 0.5t-9 -3q-23 -20 -40 -33t-35 -8q-5 2 -8.5 3.5t-8.5 6.5zM71 1q-75 0 -110.5 35t-35.5 89q0 35 10.5 73t25.5 77t32 78t30 77q4 12 6.5 21.5t2.5 15.5v4
q2 2 11 2q10 0 27 -3t33 -10t27.5 -18t11.5 -26q0 -2 -8 -22.5t-20.5 -52t-27 -70t-27 -76.5t-20.5 -71.5t-8 -54.5q0 -11 4 -19t13 -8q10 0 31 29t47 73.5t53 97t49.5 100t37 82.5t14.5 44q0 3 1.5 4t8.5 1q10 0 27.5 -3t34 -10t28.5 -18t12 -27q0 -9 -4 -17
q-23 -54 -41.5 -104t-34 -99.5t-28.5 -100t-25 -106.5q30 22 59.5 62.5t56.5 87.5t51 95t42 85q3 5 7 13.5t9.5 16t12.5 12.5t16 5q7 -2 9.5 -7.5t1.5 -12.5t-3 -14t-4 -12q-25 -53 -53.5 -112.5t-62.5 -115t-73 -101.5t-85 -72q-10 -39 -24.5 -76t-37 -66t-56 -47
t-81.5 -18q-45 0 -65.5 22t-20.5 51q0 30 15.5 49.5t39.5 33.5t54 24t59 21q17 67 29.5 128t26.5 117q-16 -32 -32 -60t-30.5 -49.5t-27 -34t-21.5 -12.5zM112 -140q-57 -18 -86 -36t-29 -47q0 -14 6 -24t20 -10q20 0 44.5 25.5t44.5 91.5z" />
    <glyph glyph-name="thorn" unicode="&#xfe;" horiz-adv-x="453" 
d="M26 34q-10 -38 -17.5 -74t-13.5 -68q-5 -30 -8.5 -62t-8 -58.5t-12 -43.5t-20.5 -15q-34 3 -54.5 18.5t-30.5 38.5t-10 50.5t8 55.5q9 31 21.5 60.5t22.5 59.5q8 24 14.5 48t13.5 50q8 33 22 86.5t29.5 114.5t32 124.5t30.5 116.5t24 90t13 47q3 11 1.5 19.5t-5 14
t-7 8.5t-3.5 4q-1 3 10 4.5t26.5 1t33 -4.5t31.5 -13.5t21 -24.5t1 -37q-7 -27 -16.5 -64t-18.5 -71.5t-15 -59t-6 -25.5q19 21 41.5 35t45 18t43.5 -2.5t39 -25.5q24 -26 32.5 -67t5 -87.5t-18 -94.5t-37 -89t-51.5 -70.5t-62 -38.5q-20 -6 -41.5 -6.5t-42 3.5t-37 12.5
t-26.5 21.5zM82 244q-11 -39 -22 -78.5t-21 -77.5q18 -34 44 -32t49 31q17 21 33 53.5t28.5 69.5t20.5 74t9 68q1 39 -13 53t-46 -16q-14 -12 -26 -30t-22.5 -38t-19 -40.5t-14.5 -36.5z" />
    <glyph glyph-name="ydieresis" unicode="&#xff;" horiz-adv-x="489" 
d="M73 551q-4 13 -0.5 27t8.5 26.5t8.5 24t-0.5 19.5q-1 2 14 3t33 -2.5t31.5 -13t8.5 -28.5q-3 -14 -7.5 -27.5t-8 -25.5t-5 -20.5t1.5 -10.5q-34 -8 -56.5 -0.5t-27.5 28.5zM298 551q-4 13 -0.5 27t8.5 26.5t8.5 24t-0.5 19.5q-1 2 14 3t33 -2.5t31 -13t9 -28.5
q-3 -14 -7.5 -27.5t-8 -25.5t-5.5 -20.5t1 -10.5q-33 -8 -55.5 -0.5t-27.5 28.5zM71 1q-8 0 -18.5 1t-22 3.5t-22.5 5.5t-18 6q-23 10 -37.5 26t-21 36.5t-6.5 44.5t5 48q14 64 42 128t51 130q5 14 8 24.5t1 16.5q1 2 11.5 2t25 -2.5t30 -8t26.5 -14.5t15.5 -21.5
t-2.5 -28.5q-7 -15 -18 -41.5t-23 -58.5t-24.5 -67.5t-22 -67.5t-15 -59t-3.5 -43q1 -11 8.5 -16.5t17.5 1.5t27 31.5t37 59.5t42 76.5t42 82t36.5 75.5t26.5 57q4 10 8 21.5t3 21.5q0 2 10.5 2t24.5 -2.5t30 -8t28 -14t17 -21t-2 -29.5q-23 -54 -42 -104.5t-34.5 -101
t-28.5 -101.5t-25 -107q33 26 64.5 69.5t60 94t54 102t47.5 93.5q5 11 13 17t16 5q6 -1 10.5 -9t-3.5 -25q-28 -57 -56.5 -118t-61 -117t-71.5 -102.5t-88 -75.5q-10 -37 -23.5 -73t-34.5 -65t-52 -47.5t-76 -20.5q-47 -4 -71 16t-27 47.5t13.5 56.5t50.5 43
q26 11 51.5 19.5t51.5 17.5q5 21 9.5 42.5t9.5 41.5q9 44 18 83.5t19 77.5q-16 -32 -32 -60t-30.5 -49.5t-27 -34t-21.5 -12.5zM112 -140q-24 -8 -47 -15.5t-39 -16.5q-24 -14 -31 -31.5t-2.5 -31t17.5 -20t30.5 1.5t36.5 34.5t35 78.5z" />
    <glyph glyph-name="dotlessi" unicode="&#x131;" horiz-adv-x="241" 
d="M60 47q8 0 24 21.5t37.5 58t47.5 86t53 105.5q11 23 22.5 36t22.5 11q10 -2 11 -14.5t-7 -31.5q-25 -54 -53 -110.5t-54.5 -103t-49.5 -76.5t-38 -30q-73 0 -110.5 33.5t-37.5 91.5q0 26 8.5 59.5t22 70.5t29 75.5t28.5 76.5q0 14 -8.5 18t-16.5 -1q6 12 20 17t31 4
t34.5 -7.5t31 -16.5t20.5 -23t2 -28q-4 -13 -14 -37t-22 -53.5t-24.5 -61.5t-21.5 -61.5t-12.5 -53.5t2.5 -37q3 -8 7 -13.5t15 -4.5z" />
    <glyph glyph-name="OE" unicode="&#x152;" horiz-adv-x="905" 
d="M389 38q-32 -27 -66.5 -40.5t-66.5 -13.5q-57 0 -99.5 40t-48.5 119q-52 31 -79.5 84t-27.5 116q0 75 31 143.5t81 121t113.5 84t129.5 31.5q70 0 127.5 -33t86.5 -100q15 29 36.5 53.5t47.5 42t55.5 27.5t61.5 10q28 0 53.5 -8.5t44.5 -25t30 -41.5t11 -58
q0 -27 -8 -52.5t-19 -48.5t-23 -45t-20 -42q-49 4 -67.5 17.5t-18.5 33.5q0 16 8 35t19 40t22 43.5t17 45.5q4 15 4 28q0 17 -7.5 24.5t-18.5 7.5q-20 0 -48.5 -27t-54 -67t-43.5 -86t-18 -84q0 -24 11.5 -40t39.5 -18q8 -2 19.5 -3.5t11.5 -11.5q0 -5 -2 -11t-4 -11
q-5 1 -15 1q-31 0 -59 -21t-49.5 -53.5t-34 -71t-12.5 -73.5q0 -39 20.5 -69t64.5 -30t81.5 32t69.5 79.5t59 103t51 102.5l6 12t9.5 16t13 13.5t16.5 5.5q2 0 6.5 -3.5t4.5 -11.5q0 -3 -1 -11t-6 -20q-14 -32 -30.5 -71t-37.5 -79.5t-46 -78.5t-55.5 -67.5t-66.5 -47.5
t-79 -18q-38 0 -68.5 10t-54 27t-39.5 39.5t-25 47.5q-11 -12 -22 -23t-22 -20zM220 122q-3 -17 -3 -30q0 -31 13.5 -47.5t33.5 -16.5q28 0 57 25t56 66t50 93.5t40 107.5t27 109t10 97q0 78 -31 114.5t-79 36.5q-38 0 -74 -19.5t-67.5 -52t-58.5 -74.5t-46 -86t-29.5 -86.5
t-10.5 -76.5q0 -28 7 -48q10 47 26 88.5t31.5 75t26.5 56.5t11 34v4q2 2 8 2q10 0 28.5 -4t36.5 -12t31 -20t13 -28q0 -11 -5 -20q-4 -8 -16 -33t-26.5 -59t-28.5 -74t-23 -77q19 7 33 20t19 30q4 -2 8 -11t4 -21t-6.5 -22.5t-17 -19t-23 -14t-25.5 -7.5zM606 348
q-15 8 -28 21l-7 -29q8 2 17 4z" />
    <glyph glyph-name="oe" unicode="&#x153;" horiz-adv-x="633" 
d="M-59 154q0 46 15.5 102.5t44.5 105.5t71 82.5t95 33.5q23 0 39.5 -6.5t27.5 -16t16.5 -20t6.5 -17.5q-2 26 -17 49t-34 25q9 16 23 25.5t30 9.5q32 0 50.5 -33t23.5 -79q27 31 58 49t65 18q45 0 72 -27.5t27 -69.5q0 -36 -15 -63t-40 -47t-58.5 -33.5t-70.5 -21.5
q-11 -32 -16.5 -63t-5.5 -57q0 -19 4.5 -31.5t11.5 -20t15.5 -10.5t16.5 -3q20 0 41 15t42 39.5t40.5 55.5t37 62.5t32 60.5t24.5 50q3 5 7 13t9.5 15.5t12.5 13t15 5.5t10.5 -6.5t1.5 -14.5t-3.5 -15t-3.5 -10q-10 -22 -25.5 -55t-35 -69t-41.5 -72t-45.5 -65t-47 -47
t-46.5 -18q-79 0 -121.5 24.5t-57.5 71.5q-31 -42 -70 -66.5t-85 -24.5q-31 0 -58 11t-46.5 31t-31 49t-11.5 65zM262 370q-6 -19 -18 -26t-23 -7q-9 0 -16 3t-9 8q6 2 10.5 15t4.5 27q0 10 -3 17t-10 7q-10 0 -24.5 -15t-30 -40t-31.5 -57.5t-28.5 -68.5t-20 -72t-7.5 -69
q0 -26 7.5 -44.5t27.5 -18.5q27 0 57 34t55.5 85t42 111t16.5 111zM389 270q19 7 39 19.5t36 29t26.5 35.5t10.5 39q0 10 -3.5 16.5t-10.5 6.5q-18 0 -45 -40t-53 -106z" />
    <glyph glyph-name="Scaron" unicode="&#x160;" horiz-adv-x="394" 
d="M168 818q-14 15 -12 27.5t25 28.5q-2 -17 7 -25t22 -14.5t26.5 -14.5t19.5 -24q2 15 13 21.5t23.5 12.5t22 15t9.5 29q40 -27 19 -55q-4 -5 -12.5 -11t-18 -12.5t-19 -14t-15.5 -14.5q-5 -5 -6.5 -9.5t-3.5 -8.5q-3 -2 -7 -3.5t-9 2.5q-5 3 -7 10t-10 13
q-14 11 -32.5 20.5t-34.5 26.5zM242 91q-14 -38 -42.5 -64.5t-64 -42.5t-74.5 -20.5t-73 3.5q-26 6 -40 19.5t-19.5 32.5t-4.5 41.5t7 45.5q8 -16 38 -21.5t65.5 -2.5t70 14t51.5 29q26 25 21 44t-26 38t-51.5 40t-55.5 51.5t-38.5 72.5t-0.5 103q10 47 34.5 92t58.5 80
t74.5 56t84.5 21q17 0 42.5 -8.5t48 -26.5t36.5 -45.5t7 -64.5q-6 -32 -17.5 -61.5t-24.5 -59t-26 -60t-21 -63.5q-24 4 -44 9.5t-32.5 17t-15 31.5t10.5 53q21 53 44.5 99t33.5 82q6 19 3.5 29.5t-10 13.5t-18 -1.5t-20.5 -15.5q-29 -31 -58 -74t-47 -90t-21 -95.5
t20 -90.5q15 -29 37 -52t39 -46t24 -49.5t-6 -63.5z" />
    <glyph glyph-name="scaron" unicode="&#x161;" horiz-adv-x="300" 
d="M36 559q-11 12 -9.5 22t20.5 24q-2 -14 5.5 -21t18 -12.5t21.5 -12t17 -19.5q2 12 11 18t19 11t18 12.5t8 23.5q33 -23 16 -45q-7 -8 -25.5 -20t-29.5 -24q-4 -5 -5 -8.5t-3 -6.5q-2 -2 -5.5 -2.5t-7.5 2.5q-4 2 -5.5 8t-8.5 11q-11 9 -26 17t-29 22zM63 145
q-17 35 -33 65.5t-23 65.5l-5 -11q-9 -19 -19 -25t-17 -2t-8 17.5t9 33.5l51 110q5 11 14.5 25t21 27t25 21.5t26.5 8.5q10 0 23.5 -4t25.5 -11.5t20.5 -18.5t8.5 -25q0 -12 -9 -27q-21 -29 -32 -48.5t-11 -42.5q0 -14 6.5 -33.5t14 -42.5t14 -48.5t6.5 -49.5q0 -31 -12 -56
t-31.5 -42.5t-43 -27t-47.5 -9.5q-22 0 -45.5 4.5t-43 15.5t-32.5 29.5t-15 46.5q-2 22 8 39.5t26 26.5t35.5 8t37.5 -17q-8 -2 -15 -17.5t-7 -35.5q0 -32 17 -47.5t34 -15.5q16 0 29 12.5t13 38.5q0 27 -17 62z" />
    <glyph glyph-name="Ydieresis" unicode="&#x178;" horiz-adv-x="764" 
d="M443 744q-3 12 0 23.5t7.5 22.5t7 20.5t-0.5 16.5q-1 1 12 2t28 -2t26.5 -11t7.5 -24q-2 -12 -6 -24t-7 -22t-4.5 -17t1.5 -9q-29 -7 -48 -0.5t-24 24.5zM635 744q-3 12 0 23.5t7.5 22.5t7 20.5t-0.5 16.5q-1 1 12 2t28 -2t26.5 -11t7.5 -24q-3 -12 -6.5 -24t-6.5 -22
t-4.5 -17t0.5 -9q-29 -7 -48 -0.5t-23 24.5zM58 255q-5 6 -13.5 15t-17 19t-15.5 20.5t-9 18.5q-11 39 -2 86.5t33 94t60 89t78.5 72.5t89 44t91.5 4q42 -10 68.5 -24.5t39 -34t13 -44t-9.5 -52.5q-18 -50 -41.5 -108.5t-46.5 -117.5t-41 -115t-24 -101q-4 -28 0.5 -44
t14.5 -19.5t25 6t32 32.5q44 60 80 127t66.5 137.5t57 141.5t51.5 138q11 29 -3 40q9 2 33 0t46.5 -10.5t36.5 -23.5t3 -39q-9 -21 -27 -70t-38 -110.5t-41 -128t-36 -120.5q-12 -40 -20.5 -76.5t-18.5 -72.5q14 -1 28 -3.5t31 -7.5q12 -3 25.5 -11.5t25 -19t19.5 -20.5
t9 -17q-2 -8 -8 -8.5t-12 5.5q-15 17 -34.5 20t-40.5 -1q-35 -6 -53 -26t-29 -43q-14 -38 -17 -87t5 -99q0 -4 -6.5 -5.5t-18 0.5t-25 7t-26.5 15q-36 27 -46.5 66.5t0.5 77.5q10 38 22 67t23.5 58t21.5 64t18 85l10 50q-21 -39 -40.5 -73t-36.5 -59t-30.5 -39.5
t-22.5 -14.5q-48 0 -81 15t-51 40.5t-23 58.5t3 70q12 58 30 110t38.5 102t41.5 100t39 103q22 63 3 69.5t-75 -35.5q-25 -19 -52.5 -47.5t-52.5 -62.5t-46 -70.5t-33.5 -70.5t-15 -63.5t10.5 -49.5q10 -16 23.5 -26t25.5 -12l-3 -12q-7 -2 -21 1t-28.5 7.5t-26 9.5t-13.5 8
z" />
    <glyph glyph-name="Zcaron" unicode="&#x17d;" horiz-adv-x="661" 
d="M297 776q-13 14 -11 26t23 27q-2 -16 7 -24t21 -14t24.5 -13.5t18.5 -22.5q2 14 12.5 20.5t22 12t20.5 14.5t9 27q38 -26 18 -51q-4 -5 -12 -10.5t-17 -12t-18 -13.5t-15 -14q-4 -5 -5 -9t-4 -8q-8 -6 -15 0q-4 3 -6 9t-10 12q-13 11 -30.5 19.5t-32.5 24.5zM154 351
q-14 1 -29.5 6t-29 11t-24 12t-16.5 10q-4 3 -9.5 15.5t-10 28t-7 32t-0.5 27.5q12 60 55.5 100.5t103.5 64t128.5 31t130 1.5t108.5 -24.5t63 -47.5q18 -31 24.5 -56.5t5 -45t-8.5 -34t-17 -24.5q-33 -33 -80 -66t-99.5 -66t-106.5 -67.5t-102.5 -71t-87.5 -75.5t-60 -82
q51 36 105 48t105.5 10t97 -12.5t80 -19.5t55.5 -11t22 13l1 17q3 0 7 1t8.5 -0.5t8 -5.5t4.5 -14q-1 -26 -5 -46t-14.5 -34t-29.5 -22t-49 -9q-37 -2 -71.5 5t-67.5 16.5t-65.5 18.5t-66 11.5t-68 -4.5t-72.5 -30q-52 35 -63.5 75t6 82t59.5 85t95.5 84t113.5 79
t115.5 70.5t100 58t66.5 42.5q29 21 19 40t-45 27q-54 13 -113.5 5.5t-113.5 -28t-98 -50t-68 -59t-22 -56t40 -41.5z" />
    <glyph glyph-name="zcaron" unicode="&#x17e;" horiz-adv-x="417" 
d="M134 556q-13 13 -10.5 24.5t22.5 25.5q-2 -15 6.5 -22.5t20 -13.5t23.5 -13.5t18 -21.5q2 13 12 19.5t21 12t19.5 13.5t8.5 26q36 -25 18 -49q-4 -5 -11.5 -10.5t-16.5 -11.5t-17.5 -12.5t-14.5 -13.5q-4 -5 -5 -9t-4 -8q-2 -2 -5.5 -3t-8.5 3q-4 3 -6 9t-9 12
q-13 10 -30 18.5t-31 24.5zM140 461q26 0 53 6t47 6q11 0 26.5 -2t30 -8t24.5 -17t10 -28q0 -18 -13 -43t-33 -53.5t-45 -60l-50 -63t-46 -61.5t-34 -56q-8 -16 -8 -21t5 -5q6 0 19 6t30.5 13t37 13t37.5 6q11 0 21.5 -3t18.5 -8q24 35 57 98t70 138q11 23 22.5 36t22.5 11
q10 -2 11 -14.5t-7 -31.5q-23 -48 -48 -99.5t-49 -95.5t-46.5 -76.5t-38.5 -44.5q-5 -4 -12.5 -5.5t-14.5 6.5q-9 10 -18.5 12t-21.5 2q-26 0 -50.5 -8t-46.5 -8q-24 0 -42.5 9t-30.5 23t-18.5 32.5t-6.5 38.5q0 29 14 57q7 15 30 43.5t51.5 64t57 72.5t46.5 68q5 10 5 12
q0 3 -4 3q-3 0 -8.5 -2.5t-11.5 -4.5q-20 -9 -42.5 -15t-42.5 -6q-8 0 -16 1t-15 4l-37 -83q-3 -6 -8 -15.5t-11 -18.5t-13.5 -14.5t-15.5 -2.5t-9.5 16t8.5 34q14 28 28.5 58.5t29.5 61.5q1 6 1 14.5t2.5 17t7 14.5t14.5 7q20 -14 37.5 -22t38.5 -8z" />
    <glyph glyph-name="florin" unicode="&#x192;" horiz-adv-x="313" 
d="M74 230q-14 -48 -30.5 -113.5t-39.5 -130t-54 -117.5t-74 -76q-42 -22 -81 -16.5t-68 27.5q-15 11 -24 24t-14 25t-8 20.5t-5 10.5l2.5 3t6 6t6.5 5.5l3 2.5q8 -1 12.5 -6t7.5 -11t4.5 -13t4.5 -13q6 -12 15 -19t19 -9.5t20.5 -1t18.5 5.5q16 8 31.5 29.5t29 50t25 62
t21.5 66t18 61t14 48.5q-3 2 -9.5 5t-13.5 6t-12.5 6.5t-6.5 6.5q-11 33 -8 56t16 38.5t34.5 24.5t47.5 13q8 27 18 63.5t22.5 77t27 81.5t32 76.5t38.5 62t46 37.5q24 11 48.5 13t45 -5.5t35 -24.5t17.5 -44q2 -14 -1 -29t-11 -23q-12 -10 -28.5 -8.5t-18.5 7.5
q6 2 10 17.5t2 29.5q-2 18 -14 19.5t-26 -4.5q-12 -6 -25 -30.5t-26.5 -59t-25.5 -74.5t-22.5 -75.5t-17.5 -63t-10 -37.5q45 -2 78 -2t38 8q1 -8 -1.5 -19t-7 -22t-10 -21.5t-11.5 -16.5q-14 -16 -44 -16t-67 6zM-39 230q-11 -3 -22 -11q-9 -9 -12 -17.5t-2 -16t5.5 -13
t9.5 -7.5q5 17 10.5 33t10.5 32z" />
    <glyph glyph-name="circumflex" unicode="&#x2c6;" horiz-adv-x="510" 
d="M116 606q13 14 27.5 24.5t29 19t28.5 16.5t25 17q13 11 16.5 22t11.5 16q8 6 14.5 4.5t11.5 -5.5q5 -6 6.5 -13.5t9.5 -16.5q10 -12 25.5 -24t31.5 -23t30 -21t21 -18q35 -45 -32 -90q0 32 -15.5 47t-35.5 25t-38 21.5t-22 35.5q-11 -26 -32.5 -39t-43 -24t-36.5 -25
t-12 -41q-37 26 -40.5 47t19.5 45z" />
    <glyph glyph-name="caron" unicode="&#x2c7;" horiz-adv-x="509" 
d="M116 637q-23 24 -19.5 45t40.5 47q-3 -27 12 -41t36.5 -25t43 -24t32.5 -39q4 24 22 35.5t38 21.5t35.5 25t15.5 47q67 -45 32 -90q-7 -8 -21 -18t-30 -21t-31.5 -23t-25.5 -24q-8 -9 -9.5 -16.5t-6.5 -13.5q-5 -4 -11.5 -5.5t-14.5 4.5q-8 5 -11.5 16t-16.5 22
q-11 9 -25 17t-28.5 16.5t-29 19t-27.5 24.5z" />
    <glyph glyph-name="breve" unicode="&#x2d8;" horiz-adv-x="496" 
d="M170 701q-8 -3 -13 -10t-6.5 -15.5t2 -17t13.5 -14.5q36 -23 72.5 -23t62.5 13.5t36 36.5t-6 47l17 8q20 -22 30.5 -39.5t14.5 -28.5q2 -4 -0.5 -12.5t-7.5 -18.5t-12 -20t-15 -17q-46 -38 -87.5 -45.5t-74.5 4t-56 36t-31 51.5q-2 6 -0.5 16.5t5 21.5t8 21.5t8.5 18.5
q6 3 15.5 -1t24.5 -12z" />
    <glyph glyph-name="dotaccent" unicode="&#x2d9;" horiz-adv-x="256" 
d="M70 605q-4 14 0 28t9 27.5t8.5 25t-0.5 20.5q-1 2 14.5 3t34 -2.5t32.5 -13.5t9 -30q-3 -14 -7.5 -28.5t-8.5 -26.5t-5.5 -21t1.5 -11q-35 -8 -58.5 -0.5t-28.5 29.5z" />
    <glyph glyph-name="ring" unicode="&#x2da;" horiz-adv-x="833" 
d="M283 696q7 0 18.5 -7.5t11.5 -12.5q23 0 38 -16t11 -37q-6 -34 -20 -49.5t-35 -20.5q-13 -3 -29 -0.5t-29.5 10.5t-23 21t-10.5 30q0 18 7.5 33t18 26t22.5 17t20 6zM334 636q1 7 -4.5 15t-14 13.5t-18 7t-16.5 -5.5q-14 -14 -24 -31t-12 -32t4.5 -25t25.5 -10
q16 0 27 6.5t17.5 17t9.5 22t5 22.5z" />
    <glyph glyph-name="ogonek" unicode="&#x2db;" horiz-adv-x="297" 
d="M196 -155q-22 -9 -44.5 -10.5t-41 5t-29.5 20.5t-11 37q0 38 27.5 62t78.5 16q8 -1 11 6.5t5 16.5t5 16t11 4q7 -2 14.5 -2.5t13 -2t8 -6t0.5 -14.5t-9 -26t-18 -20q-3 -1 -11 0t-16.5 2t-16.5 1.5t-12 -0.5q-10 -4 -17.5 -13.5t-12 -20.5t-6.5 -21t0 -14
q2 -9 14.5 -10.5t27 0.5t27 4t15.5 1q3 -2 2 -6t-4 -9t-6.5 -9.5t-4.5 -6.5z" />
    <glyph glyph-name="tilde" unicode="&#x2dc;" horiz-adv-x="442" 
d="M366 711q5 -38 -13 -55t-47 -18q-21 -1 -40 3.5t-37.5 11t-37 14t-36.5 13.5q-9 3 -19 2.5t-18 -4t-12.5 -10.5t-3.5 -17q0 -2 -6.5 -1t-8.5 6q-3 24 9.5 41t36.5 22q18 4 41 -1.5t47.5 -14.5l49 -18t47.5 -10q13 -1 19.5 3t9 9.5t3 11.5t2.5 10q2 2 5 3q6 2 9 -1z" />
    <glyph glyph-name="hungarumlaut" unicode="&#x2dd;" horiz-adv-x="446" 
d="M50 536q10 9 15 21t9 28t9.5 36t15.5 43q6 14 17 21t22 9.5t20 2t11 -1.5q18 -1 29.5 -14t13.5 -49q1 -3 -4.5 -4.5t-14 -3t-17 -4t-11.5 -7.5q-15 -22 -27.5 -40t-25.5 -29t-28 -14t-34 6zM214 536q10 9 15 21t9 28t9.5 36t15.5 43q6 14 17 21t22 9.5t20 2t11 -1.5
q18 -1 29.5 -14t13.5 -49q1 -3 -4.5 -4.5t-14 -3t-17 -4t-11.5 -7.5q-15 -22 -27.5 -40t-25.5 -29t-28 -14t-34 6z" />
    <glyph glyph-name="endash" unicode="&#x2013;" horiz-adv-x="550" 
d="M476 246q7 -21 6.5 -34t-7 -20t-19 -9.5t-27.5 -2.5q-46 0 -77.5 1t-56 1.5t-45 1.5t-44.5 1t-54.5 -1t-75.5 -2q-2 31 6.5 45.5t23.5 19.5t34.5 4t40.5 -1q22 0 63.5 -1t87 -2t85.5 -2t59 1z" />
    <glyph glyph-name="emdash" unicode="&#x2014;" horiz-adv-x="649" 
d="M579 281q10 -16 9 -26t-10 -15t-25 -7t-37 -2q-61 0 -103.5 1t-75 1.5t-60 1t-59.5 0.5t-73 -0.5t-101 -1.5q-3 23 8.5 34t31.5 15t46.5 3.5t53.5 -0.5q19 0 51.5 -0.5t70.5 -1t79.5 -1.5t79 -1.5t67.5 -0.5t47 1z" />
    <glyph glyph-name="quoteleft" unicode="&#x2018;" horiz-adv-x="218" 
d="M86 712q16 2 29.5 0t22 -10t9.5 -23.5t-7 -40.5q-3 -9 2 -14t11.5 -8t11.5 -5.5t4 -5.5q-2 -36 -16.5 -66t-34.5 -38q-2 -1 -13 -1t-23.5 3t-23 11t-10.5 23q-1 25 9 49.5t20 47.5t15 43t-6 35z" />
    <glyph glyph-name="quoteright" unicode="&#x2019;" horiz-adv-x="220" 
d="M140 495q-16 -2 -29.5 0t-22 10t-9.5 23t7 41q3 9 -2 14t-11.5 8t-12 5.5t-3.5 5.5q2 36 16.5 66t34.5 38q2 1 13 1t23.5 -3t23 -11t10.5 -23q1 -25 -9 -49.5t-20 -47.5t-15 -43t6 -35z" />
    <glyph glyph-name="quotesinglbase" unicode="&#x201a;" horiz-adv-x="247" 
d="M135 -97q-32 -4 -47.5 18.5t1.5 73.5q3 9 -2.5 14t-12 8t-12.5 5t-4 5q1 18 7 36t13.5 32.5t16.5 24.5t16 12q2 1 13 1t23.5 -3t23 -11t10.5 -23q1 -25 -10.5 -52.5t-23 -53.5t-17.5 -49t5 -38z" />
    <glyph glyph-name="quotedblleft" unicode="&#x201c;" horiz-adv-x="374" 
d="M225 677q50 5 64 -19t-3 -75q-3 -9 2.5 -14t12 -8t12 -5t4.5 -5q-1 -18 -7 -29.5t-13.5 -18.5t-14 -10.5t-8.5 -4.5t-15 -0.5t-28 5t-27.5 13.5t-12.5 24q-1 25 8 47.5t18 42t13.5 34t-5.5 23.5zM90 692q50 5 64 -19t-3 -75q-3 -9 2.5 -14t12 -8t12 -5t4.5 -5
q-1 -18 -7 -29.5t-13.5 -18.5t-14 -10.5t-8.5 -4.5t-15 -0.5t-28 5t-27.5 13.5t-12.5 24q-1 25 8 47.5t18 42t13.5 34t-5.5 23.5z" />
    <glyph glyph-name="quotedblright" unicode="&#x201d;" horiz-adv-x="372" 
d="M146 506q-50 -5 -64 19t3 75q3 9 -2.5 14t-12 8t-12.5 5t-4 5q1 18 7 29.5t13.5 18.5t14 10.5t8.5 4.5t15 0.5t28 -5t27.5 -13.5t12.5 -24q1 -25 -8 -47.5t-18 -42t-13.5 -34t5.5 -23.5zM281 491q-50 -5 -64 19t3 75q3 9 -2.5 14t-12 8t-12.5 5t-4 5q1 18 7 29.5
t13.5 18.5t14 10.5t8.5 4.5t15 0.5t28 -5t27.5 -13.5t12.5 -24q1 -25 -8 -47.5t-18 -42t-13.5 -34t5.5 -23.5z" />
    <glyph glyph-name="quotedblbase" unicode="&#x201e;" horiz-adv-x="401" 
d="M289 -97q-32 -4 -47.5 18.5t1.5 73.5q3 9 -2.5 14t-12 8t-12.5 5t-4 5q1 18 7 36t13.5 32.5t16.5 24.5t16 12q2 1 13 1t23.5 -3t23 -11t10.5 -23q1 -25 -10.5 -52.5t-23 -53.5t-17.5 -49t5 -38zM135 -97q-32 -4 -47.5 18.5t1.5 73.5q3 9 -2.5 14t-12 8t-12.5 5t-4 5
q1 18 7 36t13.5 32.5t16.5 24.5t16 12q2 1 13 1t23.5 -3t23 -11t10.5 -23q1 -25 -10.5 -52.5t-23 -53.5t-17.5 -49t5 -38z" />
    <glyph glyph-name="daggerdbl" unicode="&#x2021;" horiz-adv-x="368" 
d="M274 114q9 -40 -1 -51t-29 -11h-25.5t-21.5 1q-3 -56 -5.5 -104.5t-3.5 -84.5t-1.5 -58t1.5 -25q-23 -9 -36 3t-19 35.5t-6.5 54t1.5 58.5l8 123q-21 1 -44.5 1t-66.5 -2q-1 28 4 42t14.5 18.5t21.5 4t25 -0.5h21t28 -1q4 59 7.5 125.5t6.5 133.5h-37.5t-53.5 -2
q-1 28 4 42t14.5 18.5t21.5 4t25 -0.5h12.5t15.5 -1q2 55 3.5 104.5t1 88t-2.5 63.5t-6 30q37 4 54.5 -13.5t23 -46t3.5 -62.5t-4 -62l-8 -104q29 -2 54 -2.5t37 1.5q9 -40 -1 -51t-29 -11q-21 0 -36.5 0.5t-28.5 0.5l-16 -259q23 -1 43.5 -1.5t30.5 1.5z" />
    <glyph glyph-name="bullet" unicode="&#x2022;" horiz-adv-x="326" 
d="M59 306q-2 44 14.5 72t41.5 41.5t54 13.5t53 -11.5t37.5 -33.5t7.5 -52q-8 -46 -32.5 -75.5t-52.5 -36.5q-18 -5 -39 -1t-39.5 15t-31 28t-13.5 40z" />
    <glyph glyph-name="ellipsis" unicode="&#x2026;" horiz-adv-x="699" 
d="M59 32q-4 14 0 28t9 27.5t8.5 25t-0.5 20.5q-1 2 14.5 3t34 -2.5t32.5 -13.5t9 -30q-3 -14 -7.5 -28.5t-8.5 -26.5t-5.5 -21t1.5 -11q-35 -8 -58.5 -0.5t-28.5 29.5zM292 32q-4 14 0 28t9 27.5t8.5 25t-0.5 20.5q-1 2 14.5 3t34 -2.5t32.5 -13.5t9 -30q-3 -14 -7.5 -28.5
t-8.5 -26.5t-5.5 -21t1.5 -11q-35 -8 -58.5 -0.5t-28.5 29.5zM525 32q-4 14 0 28t9 27.5t8.5 25t-0.5 20.5q-1 2 14.5 3t34 -2.5t32.5 -13.5t9 -30q-3 -14 -7.5 -28.5t-8.5 -26.5t-5.5 -21t1.5 -11q-35 -8 -58.5 -0.5t-28.5 29.5z" />
    <glyph glyph-name="perthousand" unicode="&#x2030;" horiz-adv-x="988" 
d="M191 696q6 0 16 -3.5t19 -9.5t15.5 -12.5t6.5 -11.5q21 0 38.5 -10t30 -26t18 -36.5t2.5 -39.5q-5 -32 -17 -58.5t-28.5 -47t-35.5 -33.5t-38 -18q-25 -6 -55 -0.5t-55.5 20.5t-43 39t-18.5 56q-1 34 15.5 68t40.5 61.5t49 44.5t40 17zM794 316q7 0 17 -3.5t19.5 -9.5
t16 -12.5t6.5 -10.5q21 0 39 -10.5t31 -27t18.5 -36.5t2.5 -40q-6 -32 -18.5 -59t-29 -47.5t-35.5 -34t-38 -18.5q-26 -6 -55.5 -2.5t-55.5 16.5t-44 35t-19 54q-1 23 6.5 47t20.5 47t29.5 43.5t33 36t31 24t24.5 8.5zM883 564q23 -18 30 -32.5t2.5 -26t-20 -20.5t-37.5 -16
q-99 -30 -203 -61.5t-207.5 -64t-204.5 -65.5t-195 -65q-36 29 -35 48t22.5 32.5t55 23.5t62.5 19q16 5 52.5 16t87 26.5t110 34t121 37.5t120.5 37t107.5 33.5t83.5 27t48 16.5zM868 212q0 13 -3.5 25.5t-10.5 19.5t-17.5 7t-23.5 -13q-26 -25 -48.5 -59t-33.5 -66
t-7.5 -56.5t28.5 -29.5q19 -3 39.5 13.5t37.5 42.5t28 57.5t11 58.5zM263 591q0 13 -3.5 25.5t-11 20t-17.5 7.5t-23 -12q-26 -26 -47.5 -60t-33 -65.5t-8 -55t28.5 -28.5q19 -4 39 12t36.5 42t27.5 57t12 57zM469 310q7 0 17 -4t19.5 -9.5t16 -12t6.5 -10.5q21 0 39 -10.5
t30.5 -27t18 -37t2.5 -40.5q-6 -32 -18 -59t-28.5 -47t-36 -33.5t-38.5 -18.5q-25 -6 -55 -0.5t-55.5 20.5t-43.5 39t-19 56q-2 34 15 69t41 63t49 45t40 17zM543 205q0 13 -3.5 25.5t-11 20t-17.5 7t-23 -12.5q-26 -26 -48.5 -60t-33.5 -66.5t-8 -56.5t28 -28
q19 -4 39.5 12.5t37.5 43t28 58t12 57.5z" />
    <glyph glyph-name="guilsinglleft" unicode="&#x2039;" horiz-adv-x="499" 
d="M241 87q-29 33 -58 66.5t-59 68.5q-9 16 -11.5 34.5t-1.5 36t5 33t9 24.5q46 47 92 94.5t95 91.5q11 10 22.5 20t25 12t30 -9t38.5 -42q-58 -47 -121.5 -98t-114.5 -101q-2 -3 -3.5 -13t-2 -21.5t1 -22t5.5 -14.5q36 -41 87.5 -86.5t102.5 -93.5q-23 -33 -40.5 -42.5
t-33.5 -3t-32.5 25t-35.5 40.5z" />
    <glyph glyph-name="guilsinglright" unicode="&#x203a;" horiz-adv-x="503" 
d="M288 492q29 -33 58 -66.5t59 -68.5q9 -16 11.5 -34.5t1.5 -36t-5 -33t-9 -24.5q-46 -47 -92 -94.5t-95 -91.5q-11 -10 -22.5 -20t-25 -12t-30 8.5t-38.5 42.5q58 47 121.5 98t114.5 101q2 3 3.5 13t2 21.5t-1 22t-5.5 14.5q-36 41 -87.5 86.5t-102.5 93.5
q23 33 40.5 42.5t33.5 3t32 -25t36 -40.5z" />
    <glyph glyph-name="fraction" unicode="&#x2044;" horiz-adv-x="385" 
d="M263 708q31 2 47.5 -3.5t23.5 -16.5t5.5 -28t-7.5 -37q-26 -93 -51 -176.5t-49.5 -164.5t-48 -163.5t-45.5 -172.5q-41 8 -56.5 24.5t-16.5 38t7 47.5t15 53q5 20 19.5 67t33 108t39 128.5t38.5 127.5t30.5 105.5t15.5 62.5z" />
    <glyph glyph-name="Euro" unicode="&#x20ac;" horiz-adv-x="668" 
d="M583 532q-15 -6 -25 -8t-18 1t-15 11t-17 23q-12 18 -28.5 23.5t-33.5 1.5t-34 -18t-29 -35q-20 -37 -40 -89q50 -2 86.5 -3.5t42.5 9.5q1 -8 -1.5 -19t-6.5 -22.5t-9 -21.5t-10 -15q-6 -7 -19 -9t-30 -1.5t-37 3.5t-42 6q-6 -20 -12 -42q30 -1 59 -3t51.5 -2.5t38 1
t18.5 7.5q1 -7 -1.5 -18t-6.5 -22.5t-9 -21.5t-10 -15q-7 -8 -23 -10t-37.5 0t-47 6t-50.5 7q-11 -55 -15 -101.5t5 -72.5q7 -22 19.5 -36t29 -18t36 3.5t40.5 30.5q15 16 27.5 24t24 10t23 -0.5t24.5 -7.5q-26 -37 -56.5 -61t-65.5 -31q-43 -8 -77 -1.5t-60 24.5t-44 45.5
t-28 61.5q-8 27 -11 56q-3 2 -9 5t-12.5 6t-11.5 6.5t-6 6.5q-13 39 -4 62.5t32 37.5q-9 4 -17.5 8.5t-10.5 8.5q-10 31 -6.5 52.5t17 35t35.5 21t49 10.5q19 39 43.5 73t53.5 59t62.5 39.5t69.5 14.5q20 0 40.5 -5.5t39 -17t34 -30t25.5 -43.5zM163 313q2 1 3.5 1.5
t3.5 1.5q4 14 7.5 28.5t8.5 28.5q-6 -2 -12 -5t-10 -7q-18 -14 -14.5 -28.5t13.5 -19.5zM159 240q-11 -12 -9 -23.5t8 -17.5v20t1 21z" />
    <glyph glyph-name="trademark" unicode="&#x2122;" horiz-adv-x="683" 
d="M582 639q3 3 17 3t28.5 -3.5t24 -11.5t3.5 -21q-14 -29 -30.5 -66t-32.5 -77t-28 -78.5t-17 -70.5q-6 -36 12 -24q1 -5 1.5 -4.5t0.5 -4.5q-1 -5 -6.5 -9t-10.5 -3q-23 5 -32.5 22.5t-10.5 39t3.5 45t10.5 40.5q14 35 27.5 64.5t27.5 58.5q2 3 1 4t-4 -4l-12.5 -25
t-23 -45t-28 -54.5t-28 -52.5t-23 -39.5t-12.5 -15.5q-29 4 -38.5 15t-9.5 35q0 13 2 33t4.5 43.5t6.5 47.5t9 45q-16 -35 -32.5 -74t-31.5 -70q-9 -17 -21 -38t-28 -38.5t-36 -26t-44 -0.5q-26 8 -32.5 30t0.5 51t22.5 61.5t33 62t33 52.5t21.5 34q17 29 10 41t-28 11
t-51.5 -12t-61.5 -28t-57 -38.5t-38 -42.5q-10 -17 -3 -24t19 -9l-3 -6q-4 0 -12 -1t-14 1q-5 2 -15 10.5t-12 15.5q-7 22 2.5 43.5t30.5 40t50 33.5t61 24t63 11t57 -4q30 -8 46.5 -27.5t3.5 -50.5q-1 -1 -7.5 -13.5t-17 -33t-23 -46.5t-24.5 -52.5t-22 -51.5t-16 -44
q6 -5 15.5 -2t20 10.5t21 18t17.5 20.5q13 19 29 48.5t30.5 59t25.5 55t14 37.5q4 13 5 27t-7 19q2 2 12 4.5t21.5 1t21 -8t9.5 -21.5q0 -7 -3 -29t-7 -50t-8 -58t-6.5 -53t-2 -35t5.5 -3q6 11 18.5 34t28 51.5t31.5 60t28.5 59t19.5 48t5 28.5z" />
    <glyph glyph-name="minus" unicode="&#x2212;" horiz-adv-x="548" 
d="M476 299q7 -21 6.5 -34t-7 -20t-19 -9.5t-27.5 -2.5q-46 0 -77.5 1t-56 1.5t-45 1.5t-44.5 1t-54.5 -1t-75.5 -2q-2 31 6.5 45.5t23.5 19.5t34.5 4t40.5 -1q22 0 63.5 -1t87 -2t85.5 -2t59 1z" />
    <glyph glyph-name="A.alt01" horiz-adv-x="657" 
d="M538 722q9 3 28 3q15 0 33.5 -3t34 -9t26 -16.5t10.5 -25.5q0 -8 -5 -21q-29 -60 -61.5 -129.5t-61.5 -141.5t-51.5 -143.5t-31.5 -136.5q-2 -8 -2 -15.5v-12.5q0 -28 11 -28q9 0 24 18t32.5 46t36 62.5t36 68t31 61.5t21.5 44q10 22 28 22q6 0 10.5 -3t4.5 -11t-6 -20
q-10 -21 -24.5 -53.5t-32 -69t-37 -73.5t-38.5 -66.5t-37.5 -48t-33.5 -18.5q-38 0 -63.5 12.5t-41.5 32t-22.5 43.5t-6.5 48v11t1 11q-6 21 -11 37.5t-11.5 31t-16 29t-23.5 33.5q-22 -33 -43.5 -65.5t-44.5 -64.5q12 -5 24.5 -9t22.5 -4q22 0 30.5 15t8.5 35l12 -2
q1 -7 3.5 -16t2.5 -19t-6.5 -25t-18 -28.5t-28.5 -23.5t-38 -10q-15 0 -32.5 3.5t-34.5 11.5q-27 -34 -50 -58.5t-45.5 -40.5t-47 -23.5t-53.5 -7.5q-50 0 -78.5 23t-44.5 64q-2 5 -2.5 9t-0.5 9q0 11 3 22t6 24q13 -1 16.5 -4.5t3.5 -8.5q0 -3 -0.5 -6.5t-0.5 -8.5
q0 -17 17 -31t52 -14q36 0 77.5 25.5t83.5 66.5q-35 29 -58.5 70.5t-23.5 95.5q0 31 8 57t20 46t25.5 34t24.5 20q18 11 38 15.5t40 4.5q42 0 83 -17t76 -46q54 69 106 135.5t106 135.5q5 8 9 15t4 15q0 4 -2 12zM394 314q30 76 69 147.5t74 145.5q9 20 14.5 33.5t5.5 17.5
q0 1 -1 1q-54 -69 -106.5 -139t-102.5 -142q14 -14 25.5 -30.5t21.5 -33.5zM144 194q31 35 59.5 69.5t51.5 66.5q-17 17 -35.5 32.5t-37 27.5t-37 19t-34.5 7q-26 0 -39.5 -19t-13.5 -48q0 -36 21 -79t65 -76zM476 45q-10 0 -12 15.5t-3 38.5q-23 -12 -46.5 -23.5
t-47.5 -21.5q17 -26 46.5 -41t77.5 -15q15 0 38 30.5t49.5 77t54.5 103t53 110.5q8 19 7 31.5t-11 14.5q-11 2 -22.5 -11t-22.5 -36q-27 -56 -52.5 -105.5t-47 -87t-37.5 -59t-24 -21.5z" />
    <glyph glyph-name="A.titl" horiz-adv-x="798" 
d="M578 384q-18 4 -34.5 5.5t-30.5 1.5q-20 -27 -44 -63.5t-50.5 -76t-55 -79.5t-56 -76t-54 -64.5t-48.5 -44.5q-44 -32 -102 -32q-37 0 -63.5 14.5t-43.5 38.5t-25 55.5t-8 65.5q0 18 2.5 35t7.5 31q25 74 80.5 129t126.5 92t151.5 55t156.5 18h21.5t21.5 -1
q20 26 37.5 50t35.5 48t37 49t42 52q6 7 10.5 15t4.5 17q0 4 -2 10q2 2 8 3t14 1q11 0 30 -0.5t37.5 -4.5t32 -13t13.5 -25q0 -12 -7 -25q-23 -47 -48.5 -108t-61.5 -147q15 -21 15 -48q0 -34 -23 -71l-3 -4q0 28 -20 48q-32 -83 -54.5 -148.5t-22.5 -118.5q0 -10 2 -16.5
t7 -6.5q9 0 23.5 18.5t32 47t36 64t35.5 68.5t30 60t19 40q11 22 29 22q13 0 13 -14q0 -5 -11 -33.5t-28.5 -67.5t-40 -83.5t-46 -82t-46.5 -62.5t-41 -25q-10 0 -27 5q-50 16 -68.5 50t-18.5 76q0 34 6.5 67.5t17 65.5t23 63t25.5 60zM721 668q-21 -25 -38 -46t-34 -42.5
t-34 -45t-38 -52.5l27 -6q5 -1 8 -2t7 -2q16 33 29.5 59.5t25.5 49.5t23.5 44t23.5 43zM56 36q5 -1 9.5 -1.5t9.5 -0.5q41 0 86.5 31.5t94.5 82t99.5 114.5t101.5 129q-107 -4 -192 -37t-144 -78t-90.5 -94.5t-31.5 -86.5q0 -24 14 -40t43 -19zM616 46q8 0 24 21.5t37.5 59
t47 87t52.5 105.5q11 23 22.5 36t22.5 11q10 -2 11 -14.5t-7 -31.5q-25 -54 -53 -110.5t-54.5 -103t-49.5 -77t-38 -30.5q-48 0 -77.5 15t-46.5 41q24 10 47.5 21.5t46.5 23.5q1 -23 3 -38.5t12 -15.5z" />
    <glyph glyph-name="A.swsh" horiz-adv-x="728" 
d="M562 -2q-32 1 -58 7.5t-49 24.5q-29 22 -36.5 53t-3.5 64.5t15.5 67t20.5 61.5h-100q-44 -66 -84 -124t-79.5 -100.5t-79.5 -67.5t-85 -25q-23 0 -46 7.5t-42 21.5t-30.5 33t-9.5 43q0 11 2.5 22t5.5 24q23 -1 23 -13q0 -3 -0.5 -6.5t-0.5 -8.5q0 -17 17.5 -31t52.5 -14
q27 0 57 14.5t61.5 40.5t64.5 60.5t67 75.5q4 6 1 13t-8 13.5t-10.5 11t-5.5 5.5q0 45 37.5 67t94.5 27l203 269q-30 -12 -68 -19t-80 -13t-85 -13.5t-83 -20.5q-32 -11 -62 -30.5t-53 -45t-36.5 -56t-13.5 -62.5q0 -19 5 -38t17 -38q10 -16 24.5 -20t26.5 -6l-3 -13
q-3 -1 -11 -1q-9 0 -22 1.5t-25.5 3.5t-21.5 5t-11 5q-35 29 -50.5 69.5t-15.5 82.5q0 67 29 111t73.5 69t97.5 35t101 10q26 0 52 -1t52 -1q5 0 32 0.5t60 4t64.5 11.5t46.5 24q8 11 8 22q0 3 -2 11q5 2 16 2.5t20 0.5q15 0 33.5 -3t34 -9t26 -16t10.5 -25q0 -9 -5 -21
q-29 -60 -61 -130.5t-63 -146.5q10 2 17.5 5.5t10.5 11.5q1 -5 1.5 -9.5t0.5 -9.5q0 -27 -13 -50.5t-49 -34.5q-8 -22 -16.5 -47.5t-16 -50.5t-13.5 -48t-9 -40q-1 -6 -2 -15t0.5 -17t6 -14t13.5 -7q8 -1 21 14.5t29 40.5t32.5 56t32.5 61t29 56.5t21 42.5q24 48 45 47
q8 -1 10.5 -13.5t-6.5 -32.5q-11 -23 -26.5 -55.5t-33.5 -68.5t-37 -71t-37.5 -63.5t-34.5 -45.5t-28 -17zM488 367q18 37 42 84t45.5 90.5t36 76t14.5 39.5q0 2 -1 2q-54 -69 -107.5 -145t-105.5 -148q20 1 39 1h37z" />
    <glyph glyph-name="B.alt01" horiz-adv-x="642" 
d="M-7 278q-5 -1 -12 -2t-15 -1q-18 0 -33 9t-25.5 22.5t-16.5 29t-6 27.5q0 34 17 66t37 58q32 42 79 79t101 65t111.5 45.5t111.5 21.5q3 10 3 14q0 2 -4 9q2 1 11.5 1.5t23.5 0.5q12 0 26 -1t25.5 -4.5t19.5 -10t9 -16.5q39 -5 68.5 -21t50 -39.5t31 -52.5t10.5 -60
q0 -37 -16.5 -71.5t-42.5 -62.5t-60 -47.5t-68 -26.5q48 -27 73 -67.5t25 -84.5q0 -46 -24 -81.5t-61 -59.5t-82 -36.5t-87 -12.5q-75 0 -111 26t-36 68q0 33 21 72q7 -34 47 -52t92 -18q25 0 51 4.5t50.5 14.5t45.5 25t36 35q9 12 9 24q0 16 -13 31t-36.5 27.5t-55 22
t-68.5 14.5q-14 -40 -20.5 -65t-6.5 -39q0 -21 17 -21q7 0 16 6q2 -2 4.5 -3t2.5 -3t-5.5 -6.5t-13.5 -9t-17 -8.5t-15 -4h-2q-51 14 -71 34.5t-20 52.5q0 18 5 39.5t13 49.5l-23 83h6q8 0 19 1t25 3q19 57 45 117t45 114q-51 -12 -103 -35.5t-98 -55.5t-83 -71t-58 -81
q-10 -21 -10 -37q0 -17 11.5 -24.5t28.5 -9.5zM429 612q-17 -37 -37.5 -94t-44.5 -122q19 7 54.5 21.5t70 35.5t60.5 47.5t26 58.5q0 24 -20 40.5t-64 16.5q-22 0 -45 -4z" />
    <glyph glyph-name="B.titl" horiz-adv-x="642" 
d="M439 293q43 -32 63.5 -67t20.5 -89q0 -38 -12 -71t-32 -62q58 -18 108 -32.5t85 -14.5q36 0 36 17q0 2 -0.5 4t-0.5 4q4 6 11 6t10.5 -4t4.5 -9t1 -9.5v-6.5q0 -28 -6.5 -46.5t-17.5 -30t-26 -16.5t-31 -5q-27 0 -56 7.5t-59.5 19t-61 25.5t-58.5 28q-47 -37 -98 -56.5
t-88 -19.5q-24 0 -44.5 9t-36 23.5t-27.5 33.5t-20 39v2q0 8 5.5 19t14 21.5t17.5 19t15 12.5q14 8 32 11.5t38 3.5q36 0 76.5 -7.5t79.5 -18.5q54 35 76.5 65.5t22.5 51.5q0 20 -16.5 35t-43 27t-60 21t-66.5 17q-15 -44 -24.5 -71t-9.5 -42q0 -19 17 -19q8 0 17 6
q2 -2 4 -3t2 -3q-6 -8 -12 -14q-5 -5 -12 -9.5t-13 -4.5q-1 0 -1.5 0.5t-1.5 0.5q-43 12 -69.5 32t-26.5 55q0 33 9 55.5t14 42.5l-25 75h9q8 0 18 1t23 3q10 30 23 63.5t24.5 64.5t19.5 57t8 40q0 12 -3 17h4q2 0 4 0.5t6 0.5q12 0 30 -2t34.5 -7.5t28.5 -16.5t12 -29
q0 -12 -8 -31l-61 -143q40 9 79.5 34t71 56.5t51.5 65.5t20 61q0 35 -30 53t-78 18q-45 0 -96 -14t-102.5 -38.5t-101 -57.5t-93 -71.5t-78 -81t-54.5 -84.5q-13 -26 -13 -42q0 -25 34 -28l-4 -11q-6 0 -13.5 -1t-15.5 -1q-11 0 -25.5 7.5t-27 21t-21 31t-8.5 38.5
q0 26 11.5 54t32.5 56q43 57 102.5 108.5t127.5 90t141 61.5t142 23q52 0 96.5 -13.5t76 -39.5t49.5 -65t18 -90q0 -36 -20 -70.5t-49.5 -64t-62 -51.5t-56.5 -31zM148 -39q10 -2 19 -2q26 0 63 9.5t75 26.5q-26 10 -47 14t-39 4q-40 0 -60 -15t-20 -27q0 -9 9 -10z" />
    <glyph glyph-name="C.alt01" horiz-adv-x="558" 
d="M330 641q-15 -18 -37 -54t-46.5 -82.5t-48.5 -101t-43.5 -108.5t-31.5 -105t-12 -91t14.5 -66t49.5 -26q32 0 70.5 17t71.5 45t55.5 63.5t22.5 72.5q0 15 -8.5 20.5t-18 7.5t-18 3.5t-8.5 8.5q0 11 5 14t19 3q40 0 70.5 -27.5t30.5 -84.5q0 -5 -0.5 -10.5t-1.5 -10.5
q-11 -54 -36.5 -90t-61.5 -57.5t-79.5 -30t-91.5 -8.5q-26 0 -56 17.5t-57.5 44t-49 57.5t-28.5 59q-9 31 -9 68q0 61 20.5 129.5t52.5 133.5t71.5 121t77.5 91q30 28 68.5 43t74.5 15q48 0 84 -29.5t39 -94.5q0 -34 -8.5 -66.5t-20 -62t-22 -56.5t-14.5 -51q-54 12 -76 27
t-22 40q1 27 20 68t44 104q12 31 12 51q0 24 -17 24q-9 0 -22 -8.5t-28 -26.5z" />
    </font>
</defs>
</svg>
